  0
SECTION
  2
HEADER
  9
$ACADVER
  1
AC1032
  9
$ACADMAINTVER
 90
       55
  9
$DWGCODEPAGE
  3
ANSI_1252
  9
$LASTSAVEDBY
  1
Long_Le
  9
$REQUIREDVERSIONS
160
                 0
  9
$INSBASE
 10
0.0
 20
0.0
 30
0.0
  9
$EXTMIN
 10
524.5128122475885
 20
362.6733928131303
 30
-0.0000000000000031
  9
$EXTMAX
 10
1179.780726235175
 20
608.2856209124335
 30
0.0000000000001466
  9
$LIMMIN
 10
-0.5
 20
-0.5
  9
$LIMMAX
 10
5.0
 20
5.0
  9
$ORTHOMODE
 70
     0
  9
$REGENMODE
 70
     1
  9
$FILLMODE
 70
     1
  9
$QTEXTMODE
 70
     0
  9
$MIRRTEXT
 70
     0
  9
$LTSCALE
 40
1.0
  9
$ATTMODE
 70
     1
  9
$TEXTSIZE
 40
0.2
  9
$TRACEWID
 40
0.05
  9
$TEXTSTYLE
  7
Standard
  9
$CLAYER
  8
0
  9
$CELTYPE
  6
ByLayer
  9
$CECOLOR
 62
   256
  9
$CELTSCALE
 40
8.880422039859468
  9
$DISPSILH
 70
     0
  9
$DIMSCALE
 40
1.0
  9
$DIMASZ
 40
0.18
  9
$DIMEXO
 40
0.0625
  9
$DIMDLI
 40
0.38
  9
$DIMRND
 40
0.0
  9
$DIMDLE
 40
0.0
  9
$DIMEXE
 40
0.18
  9
$DIMTP
 40
0.0
  9
$DIMTM
 40
0.0
  9
$DIMTXT
 40
0.18
  9
$DIMCEN
 40
0.09
  9
$DIMTSZ
 40
0.0
  9
$DIMTOL
 70
     0
  9
$DIMLIM
 70
     0
  9
$DIMTIH
 70
     1
  9
$DIMTOH
 70
     1
  9
$DIMSE1
 70
     0
  9
$DIMSE2
 70
     0
  9
$DIMTAD
 70
     0
  9
$DIMZIN
 70
     0
  9
$DIMBLK
  1

  9
$DIMASO
 70
     1
  9
$DIMSHO
 70
     1
  9
$DIMPOST
  1

  9
$DIMAPOST
  1

  9
$DIMALT
 70
     0
  9
$DIMALTD
 70
     2
  9
$DIMALTF
 40
25.4
  9
$DIMLFAC
 40
1.0
  9
$DIMTOFL
 70
     0
  9
$DIMTVP
 40
0.0
  9
$DIMTIX
 70
     0
  9
$DIMSOXD
 70
     0
  9
$DIMSAH
 70
     0
  9
$DIMBLK1
  1

  9
$DIMBLK2
  1

  9
$DIMSTYLE
  2
Standard
  9
$DIMCLRD
 70
     0
  9
$DIMCLRE
 70
     0
  9
$DIMCLRT
 70
     0
  9
$DIMTFAC
 40
1.0
  9
$DIMGAP
 40
0.09
  9
$DIMJUST
 70
     0
  9
$DIMSD1
 70
     0
  9
$DIMSD2
 70
     0
  9
$DIMTOLJ
 70
     1
  9
$DIMTZIN
 70
     0
  9
$DIMALTZ
 70
     0
  9
$DIMALTTZ
 70
     0
  9
$DIMUPT
 70
     0
  9
$DIMDEC
 70
     2
  9
$DIMTDEC
 70
     4
  9
$DIMALTU
 70
     2
  9
$DIMALTTD
 70
     2
  9
$DIMTXSTY
  7
Standard
  9
$DIMAUNIT
 70
     0
  9
$DIMADEC
 70
     0
  9
$DIMALTRND
 40
0.0
  9
$DIMAZIN
 70
     0
  9
$DIMDSEP
 70
    46
  9
$DIMATFIT
 70
     3
  9
$DIMFRAC
 70
     0
  9
$DIMLDRBLK
  1

  9
$DIMLUNIT
 70
     2
  9
$DIMLWD
 70
    -2
  9
$DIMLWE
 70
    -2
  9
$DIMTMOVE
 70
     0
  9
$DIMFXL
 40
1.0
  9
$DIMFXLON
 70
     0
  9
$DIMJOGANG
 40
0.7853981633974483
  9
$DIMTFILL
 70
     0
  9
$DIMTFILLCLR
 70
     0
  9
$DIMARCSYM
 70
     0
  9
$DIMLTYPE
  6

  9
$DIMLTEX1
  6

  9
$DIMLTEX2
  6

  9
$DIMTXTDIRECTION
 70
     0
  9
$LUNITS
 70
     2
  9
$LUPREC
 70
     4
  9
$SKETCHINC
 40
0.1
  9
$FILLETRAD
 40
0.5
  9
$AUNITS
 70
     0
  9
$AUPREC
 70
     0
  9
$MENU
  1
.
  9
$ELEVATION
 40
0.0
  9
$PELEVATION
 40
0.0
  9
$THICKNESS
 40
0.0
  9
$LIMCHECK
 70
     0
  9
$CHAMFERA
 40
0.5
  9
$CHAMFERB
 40
0.5
  9
$CHAMFERC
 40
1.0
  9
$CHAMFERD
 40
0.0
  9
$SKPOLY
 70
     0
  9
$TDCREATE
 40
2460633.663104363
  9
$TDUCREATE
 40
2460633.371437697
  9
$TDUPDATE
 40
2460633.663105695
  9
$TDUUPDATE
 40
2460633.371439028
  9
$TDINDWG
 40
0.0000000116
  9
$TDUSRTIMER
 40
0.0000000116
  9
$USRTIMER
 70
     1
  9
$ANGBASE
 50
0.0
  9
$ANGDIR
 70
     0
  9
$PDMODE
 70
     0
  9
$PDSIZE
 40
0.0
  9
$PLINEWID
 40
0.0
  9
$SPLFRAME
 70
     0
  9
$SPLINETYPE
 70
     6
  9
$SPLINESEGS
 70
     8
  9
$HANDSEED
  5
C41
  9
$SURFTAB1
 70
     6
  9
$SURFTAB2
 70
     6
  9
$SURFTYPE
 70
     6
  9
$SURFU
 70
     6
  9
$SURFV
 70
     6
  9
$UCSBASE
  2

  9
$UCSNAME
  2

  9
$UCSORG
 10
0.0
 20
0.0
 30
0.0
  9
$UCSXDIR
 10
1.0
 20
0.0
 30
0.0
  9
$UCSYDIR
 10
0.0
 20
1.0
 30
0.0
  9
$UCSORTHOREF
  2

  9
$UCSORTHOVIEW
 70
     0
  9
$UCSORGTOP
 10
0.0
 20
0.0
 30
0.0
  9
$UCSORGBOTTOM
 10
0.0
 20
0.0
 30
0.0
  9
$UCSORGLEFT
 10
0.0
 20
0.0
 30
0.0
  9
$UCSORGRIGHT
 10
0.0
 20
0.0
 30
0.0
  9
$UCSORGFRONT
 10
0.0
 20
0.0
 30
0.0
  9
$UCSORGBACK
 10
0.0
 20
0.0
 30
0.0
  9
$PUCSBASE
  2

  9
$PUCSNAME
  2

  9
$PUCSORG
 10
0.0
 20
0.0
 30
0.0
  9
$PUCSXDIR
 10
1.0
 20
0.0
 30
0.0
  9
$PUCSYDIR
 10
0.0
 20
1.0
 30
0.0
  9
$PUCSORTHOREF
  2

  9
$PUCSORTHOVIEW
 70
     0
  9
$PUCSORGTOP
 10
0.0
 20
0.0
 30
0.0
  9
$PUCSORGBOTTOM
 10
0.0
 20
0.0
 30
0.0
  9
$PUCSORGLEFT
 10
0.0
 20
0.0
 30
0.0
  9
$PUCSORGRIGHT
 10
0.0
 20
0.0
 30
0.0
  9
$PUCSORGFRONT
 10
0.0
 20
0.0
 30
0.0
  9
$PUCSORGBACK
 10
0.0
 20
0.0
 30
0.0
  9
$USERI1
 70
     0
  9
$USERI2
 70
     0
  9
$USERI3
 70
     0
  9
$USERI4
 70
     0
  9
$USERI5
 70
     0
  9
$USERR1
 40
0.0
  9
$USERR2
 40
0.0
  9
$USERR3
 40
0.0
  9
$USERR4
 40
0.0
  9
$USERR5
 40
0.0
  9
$WORLDVIEW
 70
     1
  9
$SHADEDGE
 70
     3
  9
$SHADEDIF
 70
    70
  9
$TILEMODE
 70
     1
  9
$MAXACTVP
 70
    64
  9
$PINSBASE
 10
0.0
 20
0.0
 30
0.0
  9
$PLIMCHECK
 70
     0
  9
$PEXTMIN
 10
0.0
 20
0.0
 30
0.0
  9
$PEXTMAX
 10
0.0
 20
0.0
 30
0.0
  9
$PLIMMIN
 10
-20.0
 20
-7.5
  9
$PLIMMAX
 10
277.0
 20
202.5
  9
$UNITMODE
 70
     0
  9
$VISRETAIN
 70
     1
  9
$PLINEGEN
 70
     0
  9
$PSLTSCALE
 70
     1
  9
$TREEDEPTH
 70
  3020
  9
$CMLSTYLE
  2
Standard
  9
$CMLJUST
 70
     0
  9
$CMLSCALE
 40
1.0
  9
$PROXYGRAPHICS
 70
     1
  9
$MEASUREMENT
 70
     1
  9
$CELWEIGHT
370
    -1
  9
$ENDCAPS
280
     0
  9
$JOINSTYLE
280
     0
  9
$LWDISPLAY
290
     0
  9
$INSUNITS
 70
     4
  9
$HYPERLINKBASE
  1

  9
$STYLESHEET
  1

  9
$XEDIT
290
     1
  9
$CEPSNTYPE
380
     0
  9
$PSTYLEMODE
290
     1
  9
$FINGERPRINTGUID
  2
{a0d22cea-7ac1-4ffe-a2de-1c1d85580e39}
  9
$VERSIONGUID
  2
{FAEB1C32-E019-11D5-929B-00C0DF256EC4}
  9
$EXTNAMES
290
     1
  9
$PSVPSCALE
 40
0.0
  9
$OLESTARTUP
290
     0
  9
$SORTENTS
280
   127
  9
$INDEXCTL
280
     0
  9
$HIDETEXT
280
     1
  9
$XCLIPFRAME
280
     2
  9
$HALOGAP
280
     0
  9
$OBSCOLOR
 70
   257
  9
$OBSLTYPE
280
     0
  9
$INTERSECTIONDISPLAY
280
     0
  9
$INTERSECTIONCOLOR
 70
   257
  9
$DIMASSOC
280
     2
  9
$PROJECTNAME
  1

  9
$CAMERADISPLAY
290
     0
  9
$LENSLENGTH
 40
50.0
  9
$CAMERAHEIGHT
 40
0.0
  9
$STEPSPERSEC
 40
2.0
  9
$STEPSIZE
 40
6.0
  9
$3DDWFPREC
 40
2.0
  9
$PSOLWIDTH
 40
0.25
  9
$PSOLHEIGHT
 40
4.0
  9
$LOFTANG1
 40
1.570796326794897
  9
$LOFTANG2
 40
1.570796326794897
  9
$LOFTMAG1
 40
0.0
  9
$LOFTMAG2
 40
0.0
  9
$LOFTPARAM
 70
     7
  9
$LOFTNORMALS
280
     1
  9
$LATITUDE
 40
37.795
  9
$LONGITUDE
 40
-122.394
  9
$NORTHDIRECTION
 40
0.0
  9
$TIMEZONE
 70
 -8000
  9
$LIGHTGLYPHDISPLAY
280
     1
  9
$TILEMODELIGHTSYNCH
280
     1
  9
$CMATERIAL
347
B90
  9
$SOLIDHIST
280
     0
  9
$SHOWHIST
280
     1
  9
$DWFFRAME
280
     2
  9
$DGNFRAME
280
     2
  9
$REALWORLDSCALE
290
     1
  9
$INTERFERECOLOR
 62
   256
  9
$CSHADOW
280
     0
  9
$SHADOWPLANELOCATION
 40
0.0
  0
ENDSEC
  0
SECTION
  2
CLASSES
  0
CLASS
  1
ACDBDICTIONARYWDFLT
  2
AcDbDictionaryWithDefault
  3
ObjectDBX Classes
 90
        0
 91
        3
280
     0
281
     0
  0
CLASS
  1
VISUALSTYLE
  2
AcDbVisualStyle
  3
ObjectDBX Classes
 90
     4095
 91
        3
280
     0
281
     0
  0
CLASS
  1
MATERIAL
  2
AcDbMaterial
  3
ObjectDBX Classes
 90
     1153
 91
        3
280
     0
281
     0
  0
CLASS
  1
SCALE
  2
AcDbScale
  3
ObjectDBX Classes
 90
     1153
 91
        3
280
     0
281
     0
  0
CLASS
  1
TABLESTYLE
  2
AcDbTableStyle
  3
ObjectDBX Classes
 90
     4095
 91
        3
280
     0
281
     0
  0
CLASS
  1
MLEADERSTYLE
  2
AcDbMLeaderStyle
  3
ACDB_MLEADERSTYLE_CLASS
 90
     4095
 91
        3
280
     0
281
     0
  0
CLASS
  1
SUN
  2
AcDbSun
  3
SCENEOE
 90
     1153
 91
        3
280
     0
281
     0
  0
CLASS
  1
DICTIONARYVAR
  2
AcDbDictionaryVar
  3
ObjectDBX Classes
 90
        0
 91
        3
280
     0
281
     0
  0
CLASS
  1
CELLSTYLEMAP
  2
AcDbCellStyleMap
  3
ObjectDBX Classes
 90
     1152
 91
        3
280
     0
281
     0
  0
ENDSEC
  0
SECTION
  2
TABLES
  0
TABLE
  2
VPORT
  5
B55
330
0
100
AcDbSymbolTable
 70
     1
  0
VPORT
  5
B75
330
B55
100
AcDbSymbolTableRecord
100
AcDbViewportTableRecord
  2
*Active
 70
     0
 10
0.0
 20
0.0
 11
1.0
 21
1.0
 12
838.6347864848933
 22
469.1623180869195
 13
0.0
 23
0.0
 14
0.5
 24
0.5
 15
0.5
 25
0.5
 16
0.0
 26
0.0
 36
1.0
 17
0.0
 27
0.0
 37
0.0
 40
477.5482881816506
 41
1.705612829324169
 42
50.0
 43
0.0
 44
0.0
 50
0.0
 51
0.0
 71
     0
 72
   100
 73
     1
 74
     3
 75
     0
 76
     0
 77
     0
 78
     0
281
     0
 65
     1
110
0.0
120
0.0
130
0.0
111
1.0
121
0.0
131
0.0
112
0.0
122
1.0
132
0.0
 79
     0
146
0.0
348
B7B
 60
     3
 61
     5
292
     1
282
     1
141
0.0
142
0.0
 63
   250
361
BA9
  0
ENDTAB
  0
TABLE
  2
LTYPE
  5
B52
330
0
100
AcDbSymbolTable
 70
    49
  0
LTYPE
  5
B60
330
B52
100
AcDbSymbolTableRecord
100
AcDbLinetypeTableRecord
  2
ByBlock
 70
     0
  3

 72
    65
 73
     0
 40
0.0
  0
LTYPE
  5
B61
330
B52
100
AcDbSymbolTableRecord
100
AcDbLinetypeTableRecord
  2
ByLayer
 70
     0
  3

 72
    65
 73
     0
 40
0.0
  0
LTYPE
  5
B62
330
B52
100
AcDbSymbolTableRecord
100
AcDbLinetypeTableRecord
  2
Continuous
 70
     0
  3
Solid line
 72
    65
 73
     0
 40
0.0
  0
LTYPE
  5
BE4
330
B52
100
AcDbSymbolTableRecord
100
AcDbLinetypeTableRecord
  2
DASHED2
 70
     0
  3
Dashed (.5x) _ _ _ _ _ _ _ _ _ _ _ _ _ _ _ _ _
 72
    65
 73
     2
 40
0.375
 49
0.25
 74
     0
 49
-0.125
 74
     0
  0
LTYPE
  5
BE5
330
B52
100
AcDbSymbolTableRecord
100
AcDbLinetypeTableRecord
  2
DASHED
 70
     0
  3
__ __ __ __ __ __ __ __ __
 72
    65
 73
     2
 40
25.72
 49
12.86
 74
     0
 49
-12.86
 74
     0
  0
LTYPE
  5
BE6
330
B52
100
AcDbSymbolTableRecord
100
AcDbLinetypeTableRecord
  2
DIVIDE
 70
     0
  3
Divide ____ . . ____ . . ____ . . ____ . . ____
 72
    65
 73
     6
 40
31.75
 49
12.7
 74
     0
 49
-6.35
 74
     0
 49
0.0
 74
     0
 49
-6.35
 74
     0
 49
0.0
 74
     0
 49
-6.35
 74
     0
  0
LTYPE
  5
BE7
330
B52
100
AcDbSymbolTableRecord
100
AcDbLinetypeTableRecord
  2
DASHEDX2
 70
     0
  3
Dashed (2x) ____  ____  ____  ____  ____  ___
 72
    65
 73
     2
 40
38.09999999999999
 49
25.4
 74
     0
 49
-12.7
 74
     0
  0
LTYPE
  5
BE8
330
B52
100
AcDbSymbolTableRecord
100
AcDbLinetypeTableRecord
  2
DIVIDEX2
 70
     0
  3
Divide (2x) ________  .  .  ________  .  .  _
 72
    65
 73
     6
 40
63.5
 49
25.4
 74
     0
 49
-12.7
 74
     0
 49
0.0
 74
     0
 49
-12.7
 74
     0
 49
0.0
 74
     0
 49
-12.7
 74
     0
  0
LTYPE
  5
BE9
330
B52
100
AcDbSymbolTableRecord
100
AcDbLinetypeTableRecord
  2
DIVIDE2
 70
     0
  3
Divide (.5x) __..__..__..__..__..__..__..__.._
 72
    65
 73
     6
 40
15.875
 49
6.35
 74
     0
 49
-3.175
 74
     0
 49
0.0
 74
     0
 49
-3.175
 74
     0
 49
0.0
 74
     0
 49
-3.175
 74
     0
  0
LTYPE
  5
BEA
330
B52
100
AcDbSymbolTableRecord
100
AcDbLinetypeTableRecord
  2
DOT2
 70
     0
  3
Dot (.5x) ........................................
 72
    65
 73
     2
 40
0.125
 49
0.0
 74
     0
 49
-0.125
 74
     0
  0
LTYPE
  5
BEB
330
B52
100
AcDbSymbolTableRecord
100
AcDbLinetypeTableRecord
  2
DOT
 70
     0
  3
.........................
 72
    65
 73
     2
 40
10.0
 49
0.0
 74
     0
 49
-10.0
 74
     0
  0
LTYPE
  5
BED
330
B52
100
AcDbSymbolTableRecord
100
AcDbLinetypeTableRecord
  2
DRAINAGE
 70
     0
  3
Drainage ---->---->---->----
 72
    65
 73
     2
 40
10.16
 49
5.08
 74
     2
 75
     0
340
BEC
 46
2.54
 50
180.0
 44
0.0
 45
0.0
  9
RIGHT_ARROW
 49
5.08
 74
     0
  0
LTYPE
  5
BEE
330
B52
100
AcDbSymbolTableRecord
100
AcDbLinetypeTableRecord
  2
DOTX2
 70
     0
  3
Dot (2x) .  .  .  .  .  .  .  .  .  .  .  .  .  .
 72
    65
 73
     2
 40
12.7
 49
0.0
 74
     0
 49
-12.7
 74
     0
  0
LTYPE
  5
BF0
330
B52
100
AcDbSymbolTableRecord
100
AcDbLinetypeTableRecord
  2
FENCELINE1
 70
     0
  3
Fenceline circle ----0-----0----0-----0----0-----0--
 72
    65
 73
     4
 40
36.83
 49
6.35
 74
     0
 49
-2.54
 74
     2
 75
     0
340
BEF
 46
2.54
 50
0.0
 44
-2.54
 45
0.0
  9
CIRC1
 49
-2.54
 74
     0
 49
25.4
 74
     0
  0
LTYPE
  5
BF1
330
B52
100
AcDbSymbolTableRecord
100
AcDbLinetypeTableRecord
  2
DRAINAGE2
 70
     0
  3
Drainage reversed----<----<----<----
 72
    65
 73
     2
 40
10.16
 49
5.08
 74
     2
 75
     0
340
BEC
 46
2.54
 50
0.0
 44
0.0
 45
0.0
  9
RIGHT_ARROW
 49
5.08
 74
     0
  0
LTYPE
  5
BF3
330
B52
100
AcDbSymbolTableRecord
100
AcDbLinetypeTableRecord
  2
GAS_LINE
 70
     0
  3
Gas line ----GAS----GAS----GAS----GAS----GAS----GAS--
 72
    65
 73
     3
 40
24.13
 49
12.7
 74
     0
 49
-5.08
 74
     2
 75
     0
340
BF2
 46
2.54
 50
0.0
 44
-2.54
 45
-1.27
  9
GAS
 49
-6.35
 74
     0
  0
LTYPE
  5
BF4
330
B52
100
AcDbSymbolTableRecord
100
AcDbLinetypeTableRecord
  2
FENCELINE2
 70
     0
  3
Fenceline square ----[]-----[]----[]-----[]----[]---
 72
    65
 73
     4
 40
36.83
 49
6.35
 74
     0
 49
-2.54
 74
     2
 75
     0
340
BEF
 46
2.54
 50
0.0
 44
-2.54
 45
0.0
  9
BOX
 49
-2.54
 74
     0
 49
25.4
 74
     0
  0
LTYPE
  5
BF5
330
B52
100
AcDbSymbolTableRecord
100
AcDbLinetypeTableRecord
  2
HIDDEN2
 70
     0
  3
Hidden (.5x) _ _ _ _ _ _ _ _ _ _ _ _ _ _ _ _ _ 
 72
    65
 73
     2
 40
4.762499999999999
 49
3.175
 74
     0
 49
-1.5875
 74
     0
  0
LTYPE
  5
BF6
330
B52
100
AcDbSymbolTableRecord
100
AcDbLinetypeTableRecord
  2
HIDDEN
 70
     0
  3
Hidden __ __ __ __ __ __ __ __ __ __ __ __ __ __
 72
    65
 73
     2
 40
9.524999999999999
 49
6.35
 74
     0
 49
-3.175
 74
     0
  0
LTYPE
  5
BF7
330
B52
100
AcDbSymbolTableRecord
100
AcDbLinetypeTableRecord
  2
HOT_WATER_SUPPLY
 70
     0
  3
Hot water supply ---- HW ---- HW ---- HW ----
 72
    65
 73
     3
 40
22.86
 49
12.7
 74
     0
 49
-5.08
 74
     2
 75
     0
340
BF2
 46
2.54
 50
0.0
 44
-2.54
 45
-1.27
  9
HW
 49
-5.08
 74
     0
  0
LTYPE
  5
BF8
330
B52
100
AcDbSymbolTableRecord
100
AcDbLinetypeTableRecord
  2
HIDDENX2
 70
     0
  3
Hidden (2x) ____ ____ ____ ____ ____ ____ ____ 
 72
    65
 73
     2
 40
19.05
 49
12.7
 74
     0
 49
-6.35
 74
     0
  0
LTYPE
  5
BF9
330
B52
100
AcDbSymbolTableRecord
100
AcDbLinetypeTableRecord
  2
PHANTOM2
 70
     0
  3
Phantom (.5x) ___ _ _ ___ _ _ ___ _ _ ___ _ _
 72
    65
 73
     6
 40
31.75
 49
15.875
 74
     0
 49
-3.175
 74
     0
 49
3.175
 74
     0
 49
-3.175
 74
     0
 49
3.175
 74
     0
 49
-3.175
 74
     0
  0
LTYPE
  5
BFA
330
B52
100
AcDbSymbolTableRecord
100
AcDbLinetypeTableRecord
  2
PHANTOM
 70
     0
  3
____ _ _ ____ _ _ _____ _ _ ____
 72
    65
 73
     6
 40
50.5
 49
18.0
 74
     0
 49
-6.5
 74
     0
 49
6.5
 74
     0
 49
-6.5
 74
     0
 49
6.5
 74
     0
 49
-6.5
 74
     0
  0
LTYPE
  5
BFB
330
B52
100
AcDbSymbolTableRecord
100
AcDbLinetypeTableRecord
  2
TRACKS
 70
     0
  3
Tracks -|-|-|-|-|-|-|-|-|-|-|-|-|-|-|-|-|-|-|-|-|-|-|-|-
 72
    65
 73
     2
 40
7.62
 49
3.81
 74
     2
 75
     0
340
BEF
 46
6.35
 50
0.0
 44
0.0
 45
0.0
  9
TRACK1
 49
3.81
 74
     0
  0
LTYPE
  5
BFC
330
B52
100
AcDbSymbolTableRecord
100
AcDbLinetypeTableRecord
  2
PHANTOMX2
 70
     0
  3
Phantom (2x) ____________    ____    ____   _
 72
    65
 73
     6
 40
127.0
 49
63.5
 74
     0
 49
-12.7
 74
     0
 49
12.7
 74
     0
 49
-12.7
 74
     0
 49
12.7
 74
     0
 49
-12.7
 74
     0
  0
LTYPE
  5
BFD
330
B52
100
AcDbSymbolTableRecord
100
AcDbLinetypeTableRecord
  2
ZIGZAG
 70
     0
  3
Zig zag /\/\/\/\/\/\/\/\/\/\/\/\/\/\/\/\/\/\/\/\/\/\/\/
 72
    65
 73
     4
 40
20.32254
 49
0.00254
 74
     0
 49
-5.08
 74
     2
 75
     0
340
BEF
 46
5.08
 50
0.0
 44
-5.08
 45
0.0
  9
ZIG
 49
-10.16
 74
     2
 75
     0
340
BEF
 46
5.08
 50
180.0
 44
5.08
 45
0.0
  9
ZIG
 49
-5.08
 74
     0
  0
LTYPE
  5
BFE
330
B52
100
AcDbSymbolTableRecord
100
AcDbLinetypeTableRecord
  2
PTHANTOM2
 70
     0
  3
Phantom (.5x) ___ _ _ ___ _ _ ___ _ _ ___ _ _
 72
    65
 73
     6
 40
1.25
 49
0.625
 74
     0
 49
-0.125
 74
     0
 49
0.125
 74
     0
 49
-0.125
 74
     0
 49
0.125
 74
     0
 49
-0.125
 74
     0
  0
LTYPE
  5
BFF
330
B52
100
AcDbSymbolTableRecord
100
AcDbLinetypeTableRecord
  2
ACAD_ISO03W100
 70
     0
  3
ISO dash space __    __    __    __    __    __
 72
    65
 73
     2
 40
30.0
 49
12.0
 74
     0
 49
-18.0
 74
     0
  0
LTYPE
  5
C00
330
B52
100
AcDbSymbolTableRecord
100
AcDbLinetypeTableRecord
  2
ACAD_ISO02W100
 70
     0
  3
ISO dash __ __ __ __ __ __ __ __ __ __ __ __ __
 72
    65
 73
     2
 40
15.0
 49
12.0
 74
     0
 49
-3.0
 74
     0
  0
LTYPE
  5
C01
330
B52
100
AcDbSymbolTableRecord
100
AcDbLinetypeTableRecord
  2
ACAD_ISO05W100
 70
     0
  3
ISO long-dash double-dot ____ .. ____ .. ____ . 
 72
    65
 73
     6
 40
33.0
 49
24.0
 74
     0
 49
-3.0
 74
     0
 49
0.0
 74
     0
 49
-3.0
 74
     0
 49
0.0
 74
     0
 49
-3.0
 74
     0
  0
LTYPE
  5
C02
330
B52
100
AcDbSymbolTableRecord
100
AcDbLinetypeTableRecord
  2
ACAD_ISO04W100
 70
     0
  3
ISO long-dash dot ____ . ____ . ____ . ____ . _
 72
    65
 73
     4
 40
30.0
 49
24.0
 74
     0
 49
-3.0
 74
     0
 49
0.0
 74
     0
 49
-3.0
 74
     0
  0
LTYPE
  5
C03
330
B52
100
AcDbSymbolTableRecord
100
AcDbLinetypeTableRecord
  2
ACAD_ISO07W100
 70
     0
  3
ISO dot . . . . . . . . . . . . . . . . . . . . 
 72
    65
 73
     2
 40
3.0
 49
0.0
 74
     0
 49
-3.0
 74
     0
  0
LTYPE
  5
C04
330
B52
100
AcDbSymbolTableRecord
100
AcDbLinetypeTableRecord
  2
ACAD_ISO06W100
 70
     0
  3
ISO long-dash triple-dot ____ ... ____ ... ____
 72
    65
 73
     8
 40
36.0
 49
24.0
 74
     0
 49
-3.0
 74
     0
 49
0.0
 74
     0
 49
-3.0
 74
     0
 49
0.0
 74
     0
 49
-3.0
 74
     0
 49
0.0
 74
     0
 49
-3.0
 74
     0
  0
LTYPE
  5
C05
330
B52
100
AcDbSymbolTableRecord
100
AcDbLinetypeTableRecord
  2
ACAD_ISO09W100
 70
     0
  3
ISO long-dash double-short-dash ____ __ __ ____
 72
    65
 73
     6
 40
45.0
 49
24.0
 74
     0
 49
-3.0
 74
     0
 49
6.0
 74
     0
 49
-3.0
 74
     0
 49
6.0
 74
     0
 49
-3.0
 74
     0
  0
LTYPE
  5
C06
330
B52
100
AcDbSymbolTableRecord
100
AcDbLinetypeTableRecord
  2
ACAD_ISO08W100
 70
     0
  3
ISO long-dash short-dash ____ __ ____ __ ____ _
 72
    65
 73
     4
 40
36.0
 49
24.0
 74
     0
 49
-3.0
 74
     0
 49
6.0
 74
     0
 49
-3.0
 74
     0
  0
LTYPE
  5
C07
330
B52
100
AcDbSymbolTableRecord
100
AcDbLinetypeTableRecord
  2
ACAD_ISO11W100
 70
     0
  3
ISO double-dash dot __ __ . __ __ . __ __ . __ _
 72
    65
 73
     6
 40
33.0
 49
12.0
 74
     0
 49
-3.0
 74
     0
 49
12.0
 74
     0
 49
-3.0
 74
     0
 49
0.0
 74
     0
 49
-3.0
 74
     0
  0
LTYPE
  5
C08
330
B52
100
AcDbSymbolTableRecord
100
AcDbLinetypeTableRecord
  2
ACAD_ISO10W100
 70
     0
  3
ISO dash dot __ . __ . __ . __ . __ . __ . __ . 
 72
    65
 73
     4
 40
18.0
 49
12.0
 74
     0
 49
-3.0
 74
     0
 49
0.0
 74
     0
 49
-3.0
 74
     0
  0
LTYPE
  5
C09
330
B52
100
AcDbSymbolTableRecord
100
AcDbLinetypeTableRecord
  2
ACAD_ISO13W100
 70
     0
  3
ISO double-dash double-dot __ __ . . __ __ . . _
 72
    65
 73
     8
 40
36.0
 49
12.0
 74
     0
 49
-3.0
 74
     0
 49
12.0
 74
     0
 49
-3.0
 74
     0
 49
0.0
 74
     0
 49
-3.0
 74
     0
 49
0.0
 74
     0
 49
-3.0
 74
     0
  0
LTYPE
  5
C0A
330
B52
100
AcDbSymbolTableRecord
100
AcDbLinetypeTableRecord
  2
ACAD_ISO12W100
 70
     0
  3
ISO dash double-dot __ . . __ . . __ . . __ . . 
 72
    65
 73
     6
 40
21.0
 49
12.0
 74
     0
 49
-3.0
 74
     0
 49
0.0
 74
     0
 49
-3.0
 74
     0
 49
0.0
 74
     0
 49
-3.0
 74
     0
  0
LTYPE
  5
C0B
330
B52
100
AcDbSymbolTableRecord
100
AcDbLinetypeTableRecord
  2
ACAD_ISO15W100
 70
     0
  3
ISO double-dash triple-dot __ __ . . . __ __ . .
 72
    65
 73
    10
 40
39.0
 49
12.0
 74
     0
 49
-3.0
 74
     0
 49
12.0
 74
     0
 49
-3.0
 74
     0
 49
0.0
 74
     0
 49
-3.0
 74
     0
 49
0.0
 74
     0
 49
-3.0
 74
     0
 49
0.0
 74
     0
 49
-3.0
 74
     0
  0
LTYPE
  5
C0C
330
B52
100
AcDbSymbolTableRecord
100
AcDbLinetypeTableRecord
  2
ACAD_ISO14W100
 70
     0
  3
ISO dash triple-dot __ . . . __ . . . __ . . . _
 72
    65
 73
     8
 40
24.0
 49
12.0
 74
     0
 49
-3.0
 74
     0
 49
0.0
 74
     0
 49
-3.0
 74
     0
 49
0.0
 74
     0
 49
-3.0
 74
     0
 49
0.0
 74
     0
 49
-3.0
 74
     0
  0
LTYPE
  5
C0D
330
B52
100
AcDbSymbolTableRecord
100
AcDbLinetypeTableRecord
  2
BORDER
 70
     0
  3
Border __ __ . __ __ . __ __ . __ __ . __ __ .
 72
    65
 73
     6
 40
44.45
 49
12.7
 74
     0
 49
-6.35
 74
     0
 49
12.7
 74
     0
 49
-6.35
 74
     0
 49
0.0
 74
     0
 49
-6.35
 74
     0
  0
LTYPE
  5
C0E
330
B52
100
AcDbSymbolTableRecord
100
AcDbLinetypeTableRecord
  2
BATTING
 70
     0
  3
Batting SSSSSSSSSSSSSSSSSSSSSSSSSSSSSSSSSSSSSSSSSSSSSSS
 72
    65
 73
     4
 40
10.16254
 49
0.00254
 74
     0
 49
-2.54
 74
     2
 75
     0
340
BEF
 46
2.54
 50
0.0
 44
-2.54
 45
0.0
  9
BAT
 49
-5.08
 74
     2
 75
     0
340
BEF
 46
2.54
 50
180.0
 44
2.54
 45
0.0
  9
BAT
 49
-2.54
 74
     0
  0
LTYPE
  5
C0F
330
B52
100
AcDbSymbolTableRecord
100
AcDbLinetypeTableRecord
  2
BORDERX2
 70
     0
  3
Border (2x) ____  ____  .  ____  ____  .  ___
 72
    65
 73
     6
 40
88.89999999999999
 49
25.4
 74
     0
 49
-12.7
 74
     0
 49
25.4
 74
     0
 49
-12.7
 74
     0
 49
0.0
 74
     0
 49
-12.7
 74
     0
  0
LTYPE
  5
C10
330
B52
100
AcDbSymbolTableRecord
100
AcDbLinetypeTableRecord
  2
BORDER2
 70
     0
  3
Border (.5x) __.__.__.__.__.__.__.__.__.__.__.
 72
    65
 73
     6
 40
22.225
 49
6.35
 74
     0
 49
-3.175
 74
     0
 49
6.35
 74
     0
 49
-3.175
 74
     0
 49
0.0
 74
     0
 49
-3.175
 74
     0
  0
LTYPE
  5
C11
330
B52
100
AcDbSymbolTableRecord
100
AcDbLinetypeTableRecord
  2
CENTER2
 70
     0
  3
Center (.5x) ___ _ ___ _ ___ _ ___ _ ___ _ ___
 72
    65
 73
     4
 40
1.125
 49
0.75
 74
     0
 49
-0.125
 74
     0
 49
0.125
 74
     0
 49
-0.125
 74
     0
  0
LTYPE
  5
C12
330
B52
100
AcDbSymbolTableRecord
100
AcDbLinetypeTableRecord
  2
CENTER
 70
     0
  3
____ _ ____ _ ____ _ ____
 72
    65
 73
     4
 40
47.5
 49
22.0
 74
     0
 49
-8.5
 74
     0
 49
8.5
 74
     0
 49
-8.5
 74
     0
  0
LTYPE
  5
C13
330
B52
100
AcDbSymbolTableRecord
100
AcDbLinetypeTableRecord
  2
DASHDOT
 70
     0
  3
_._._._._._._._._._._._._._._._.
 72
    65
 73
     4
 40
70.0
 49
31.0
 74
     0
 49
-13.0
 74
     0
 49
13.0
 74
     0
 49
-13.0
 74
     0
  0
LTYPE
  5
C14
330
B52
100
AcDbSymbolTableRecord
100
AcDbLinetypeTableRecord
  2
CENTERX2
 70
     0
  3
Center (2x) ________  __  ________  __  _____
 72
    65
 73
     4
 40
2400.0
 49
1500.0
 74
     0
 49
-300.0
 74
     0
 49
300.0
 74
     0
 49
-300.0
 74
     0
  0
LTYPE
  5
C15
330
B52
100
AcDbSymbolTableRecord
100
AcDbLinetypeTableRecord
  2
DASHDOTX2
 70
     0
  3
Dash dot (2x) ____  .  ____  .  ____  .  ___
 72
    65
 73
     4
 40
50.8
 49
25.4
 74
     0
 49
-12.7
 74
     0
 49
0.0
 74
     0
 49
-12.7
 74
     0
  0
LTYPE
  5
C16
330
B52
100
AcDbSymbolTableRecord
100
AcDbLinetypeTableRecord
  2
DASHDOT2
 70
     0
  3
Dash dot (.5x) _._._._._._._._._._._._._._._.
 72
    65
 73
     4
 40
12.7
 49
6.35
 74
     0
 49
-3.175
 74
     0
 49
0.0
 74
     0
 49
-3.175
 74
     0
  0
ENDTAB
  0
TABLE
  2
LAYER
  5
B50
330
0
100
AcDbSymbolTable
 70
     7
  0
LAYER
  5
B5D
330
B50
100
AcDbSymbolTableRecord
100
AcDbLayerTableRecord
  2
0
 70
     0
 62
     7
  6
Continuous
370
    -3
390
B5C
347
B92
348
0
  0
LAYER
  5
C17
330
B50
100
AcDbSymbolTableRecord
100
AcDbLayerTableRecord
  2
1
 70
     0
 62
     7
  6
Continuous
370
    -3
390
B5C
347
B92
348
0
  0
LAYER
  5
C18
330
B50
100
AcDbSymbolTableRecord
100
AcDbLayerTableRecord
  2
100
 70
     0
 62
     7
  6
Continuous
370
    -3
390
B5C
347
B92
348
0
  0
LAYER
  5
C19
330
B50
100
AcDbSymbolTableRecord
100
AcDbLayerTableRecord
  2
Defpoints
 70
     0
 62
     7
  6
Continuous
290
     0
370
    -3
390
B5C
347
B92
348
0
  0
LAYER
  5
C1A
330
B50
100
AcDbSymbolTableRecord
100
AcDbLayerTableRecord
  2
MiniCADViewLayer
 70
     0
 62
     1
  6
Continuous
370
    -3
390
B5C
347
B92
348
0
  0
LAYER
  5
C1B
330
B50
100
AcDbSymbolTableRecord
100
AcDbLayerTableRecord
  2
PUB_DIM尺寸
 70
     0
 62
     3
  6
Continuous
370
    20
390
B5C
347
B92
348
0
  0
LAYER
  5
C1C
330
B50
100
AcDbSymbolTableRecord
100
AcDbLayerTableRecord
  2
Top
 70
     0
 62
     7
  6
Continuous
370
    -3
390
B5C
347
B92
348
0
  0
ENDTAB
  0
TABLE
  2
STYLE
  5
B51
330
0
100
AcDbSymbolTable
 70
     6
  0
STYLE
  5
B5E
330
B51
100
AcDbSymbolTableRecord
100
AcDbTextStyleTableRecord
  2
Standard
 70
     0
 40
0.0
 41
1.0
 50
0.0
 71
     0
 42
0.2
  3
txt
  4

  0
STYLE
  5
BE2
330
B51
100
AcDbSymbolTableRecord
100
AcDbTextStyleTableRecord
  2
QCADDimTextStyle
 70
     0
 40
0.0
 41
1.0
 50
0.0
 71
     0
 42
0.2
  3

  4

  0
STYLE
  5
BEC
330
B51
100
AcDbSymbolTableRecord
100
AcDbTextStyleTableRecord
  2
textstyle0
 70
     0
 40
0.0
 41
1.0
 50
0.0
 71
     0
 42
0.2
  3
qcadshp.shx
  4

  0
STYLE
  5
BEF
330
B51
100
AcDbSymbolTableRecord
100
AcDbTextStyleTableRecord
  2
textstyle1
 70
     0
 40
0.0
 41
1.0
 50
0.0
 71
     0
 42
0.2
  3
ltypeshp.shx
  4

  0
STYLE
  5
BF2
330
B51
100
AcDbSymbolTableRecord
100
AcDbTextStyleTableRecord
  2
textstyle2
 70
     0
 40
0.0
 41
1.0
 50
0.0
 71
     0
 42
0.2
  3
STANDARD
  4

  0
STYLE
  5
C37
330
B51
100
AcDbSymbolTableRecord
100
AcDbTextStyleTableRecord
  2
textstyle3
 70
     0
 40
0.0
 41
1.0
 50
0.0
 71
     0
 42
0.2
  3

  4

1001
ACAD
1000
simplex
1071
        0
  0
ENDTAB
  0
TABLE
  2
VIEW
  5
B53
330
0
100
AcDbSymbolTable
 70
     0
  0
ENDTAB
  0
TABLE
  2
UCS
  5
B54
330
0
100
AcDbSymbolTable
 70
     0
  0
ENDTAB
  0
TABLE
  2
APPID
  5
B56
330
0
100
AcDbSymbolTable
 70
     2
  0
APPID
  5
B5F
330
B56
100
AcDbSymbolTableRecord
100
AcDbRegAppTableRecord
  2
ACAD
 70
     0
  0
APPID
  5
BAA
330
B56
100
AcDbSymbolTableRecord
100
AcDbRegAppTableRecord
  2
QCAD
 70
     0
  0
ENDTAB
  0
TABLE
  2
DIMSTYLE
  5
B57
330
0
100
AcDbSymbolTable
 70
     2
100
AcDbDimStyleTable
  0
DIMSTYLE
105
B73
330
B57
100
AcDbSymbolTableRecord
100
AcDbDimStyleTableRecord
  2
Standard
 70
     0
178
     0
340
B5E
  0
DIMSTYLE
105
BE3
102
{ACAD_REACTORS
330
135
330
13F
330
149
330
15D
330
1DA
330
1E9
330
251
330
25F
330
30C
330
7F9
330
7FA
330
7FB
330
7FC
330
7FD
330
7FE
330
8FC
330
8FD
330
9DE
330
9DF
330
9E0
330
B4C
102
}
330
B57
100
AcDbSymbolTableRecord
100
AcDbDimStyleTableRecord
  2
QCADDimStyle
 70
     0
178
     0
271
     2
279
     2
340
BE2
  0
ENDTAB
  0
TABLE
  2
BLOCK_RECORD
  5
B4F
330
0
100
AcDbSymbolTable
 70
     7
  0
BLOCK_RECORD
  5
B6B
330
B4F
100
AcDbSymbolTableRecord
100
AcDbBlockTableRecord
  2
*Model_Space
340
B6E
 70
     0
280
     1
281
     0
  0
BLOCK_RECORD
  5
C1F
330
B4F
100
AcDbSymbolTableRecord
100
AcDbBlockTableRecord
  2
*Paper_Space
340
C20
 70
     0
280
     1
281
     0
  0
BLOCK_RECORD
  5
B67
330
B4F
100
AcDbSymbolTableRecord
100
AcDbBlockTableRecord
  2
*Paper_Space1
340
B6A
 70
     0
280
     1
281
     0
  0
BLOCK_RECORD
  5
C25
330
B4F
100
AcDbSymbolTableRecord
100
AcDbBlockTableRecord
  2
12345ssdlh@&&@12345ssdlh+createbycq
340
0
 70
     0
280
     1
281
     0
  0
BLOCK_RECORD
  5
C28
330
B4F
100
AcDbSymbolTableRecord
100
AcDbBlockTableRecord
  2
DimnDraft3D1
340
0
 70
     0
280
     1
281
     0
  0
BLOCK_RECORD
  5
C2B
330
B4F
100
AcDbSymbolTableRecord
100
AcDbBlockTableRecord
  2
DimnDraft3D2
340
0
 70
     0
280
     1
281
     0
  0
BLOCK_RECORD
  5
C2E
330
B4F
100
AcDbSymbolTableRecord
100
AcDbBlockTableRecord
  2
DimnDraft3D3
340
0
 70
     0
280
     1
281
     0
  0
BLOCK_RECORD
  5
C31
330
B4F
100
AcDbSymbolTableRecord
100
AcDbBlockTableRecord
  2
DimnDraft3D4
340
0
 70
     0
280
     1
281
     0
  0
BLOCK_RECORD
  5
C34
330
B4F
100
AcDbSymbolTableRecord
100
AcDbBlockTableRecord
  2
DimnDraft3D5
340
0
 70
     0
280
     1
281
     0
  0
ENDTAB
  0
ENDSEC
  0
SECTION
  2
BLOCKS
  0
BLOCK
  5
B6C
330
B6B
100
AcDbEntity
  8
0
100
AcDbBlockBegin
  2
*Model_Space
 70
     0
 10
0.0
 20
0.0
 30
0.0
  3
*Model_Space
  1

  0
ENDBLK
  5
B6D
330
B6B
100
AcDbEntity
  8
0
100
AcDbBlockEnd
  0
BLOCK
  5
C21
330
C1F
100
AcDbEntity
 67
     1
  8
0
100
AcDbBlockBegin
  2
*Paper_Space
 70
     0
 10
0.0
 20
0.0
 30
0.0
  3
*Paper_Space
  1

  0
ENDBLK
  5
C22
330
C1F
100
AcDbEntity
 67
     1
  8
0
100
AcDbBlockEnd
  0
BLOCK
  5
B68
330
B67
100
AcDbEntity
  8
0
100
AcDbBlockBegin
  2
*Paper_Space1
 70
     0
 10
0.0
 20
0.0
 30
0.0
  3
*Paper_Space1
  1

  0
VIEWPORT
  5
C1D
330
B67
100
AcDbEntity
  8
0
 48
8.880422039859468
100
AcDbViewport
 10
128.5
 20
97.5
 30
0.0
 40
314.226
 41
222.18
 68
     1
 69
     1
 12
128.5
 22
97.5
 13
0.0
 23
0.0
 14
10.0
 24
10.0
 15
10.0
 25
10.0
 16
0.0
 26
0.0
 36
1.0
 17
0.0
 27
0.0
 37
0.0
 42
50.0
 43
0.0
 44
0.0
 45
222.18
 50
0.0
 51
0.0
 72
   100
 90
   557152
  1

281
     0
 71
     1
 74
     0
110
0.0
120
0.0
130
0.0
111
1.0
121
0.0
131
0.0
112
0.0
122
1.0
132
0.0
 79
     0
146
0.0
170
     0
 61
     5
348
B7B
292
     1
282
     1
141
0.0
142
0.0
 63
   256
361
C1E
  0
ENDBLK
  5
B69
330
B67
100
AcDbEntity
  8
0
100
AcDbBlockEnd
  0
BLOCK
  5
C26
330
C25
100
AcDbEntity
  8
0
100
AcDbBlockBegin
  2
12345ssdlh@&&@12345ssdlh+createbycq
 70
     0
 10
0.0
 20
0.0
 30
0.0
  3
12345ssdlh@&&@12345ssdlh+createbycq
  1

  0
ENDBLK
  5
C27
330
C25
100
AcDbEntity
  8
0
100
AcDbBlockEnd
  0
BLOCK
  5
C29
330
C28
100
AcDbEntity
  8
0
100
AcDbBlockBegin
  2
DimnDraft3D1
 70
     0
 10
0.0
 20
0.0
 30
0.0
  3
DimnDraft3D1
  1

  0
MTEXT
  5
12D
330
C28
100
AcDbEntity
  8
100
  6
Continuous
 62
     5
370
    13
100
AcDbMText
 10
586.2475335038506
 20
369.1292204399348
 30
0.0
 40
10.0
 41
0.0
 46
0.0
 71
     7
 72
     1
  1
\W0.7885;101.1
  7
textstyle3
 73
     1
 44
0.6325301204819278
  0
LINE
  5
12E
330
C28
100
AcDbEntity
  8
100
  6
Continuous
 62
   124
370
    13
100
AcDbLine
 10
547.0893970666319
 20
374.960205230778
 30
0.0
 11
547.0893970666319
 21
367.3583869873922
 31
0.0
  0
LINE
  5
12F
330
C28
100
AcDbEntity
  8
100
  6
Continuous
 62
   124
370
    13
100
AcDbLine
 10
648.1452532744023
 20
374.960205230778
 30
0.0
 11
648.1452532744023
 21
367.3583869873922
 31
0.0
  0
LINE
  5
130
330
C28
100
AcDbEntity
  8
100
  6
Continuous
 62
   156
370
    13
100
AcDbLine
 10
547.0893970666319
 20
369.3583869873922
 30
0.0
 11
648.1452532744023
 21
369.3583869873922
 31
0.0
  0
SOLID
  5
131
330
C28
100
AcDbEntity
  8
100
  6
Continuous
 62
   156
370
    13
100
AcDbTrace
 10
547.0893970666319
 20
369.3583869873922
 30
0.0
 11
550.5893947997339
 21
369.9755314198677
 31
0.0
 12
550.58939933353
 22
368.7412425549167
 32
0.0
 13
547.0893970666319
 23
369.3583869873922
 33
0.0
  0
SOLID
  5
132
330
C28
100
AcDbEntity
  8
100
  6
Continuous
 62
   156
370
    13
100
AcDbTrace
 10
648.1452532744023
 20
369.3583869873922
 30
0.0
 11
644.6452555413003
 21
368.7412425549167
 31
0.0
 12
644.6452510075043
 22
369.9755314198677
 32
0.0
 13
648.1452532744023
 23
369.3583869873922
 33
0.0
  0
ENDBLK
  5
C2A
330
C28
100
AcDbEntity
  8
0
100
AcDbBlockEnd
  0
BLOCK
  5
C2C
330
C2B
100
AcDbEntity
  8
0
100
AcDbBlockBegin
  2
DimnDraft3D2
 70
     0
 10
0.0
 20
0.0
 30
0.0
  3
DimnDraft3D2
  1

  0
MTEXT
  5
137
330
C2B
100
AcDbEntity
  8
100
  6
Continuous
 62
     5
370
    13
100
AcDbMText
 10
694.5252891656819
 20
471.1467173880644
 30
0.0
 40
10.0
 41
0.0
 46
0.0
 71
     7
 72
     1
  1
\W0.6511;28.7
  7
textstyle3
 73
     1
 44
0.6325301204819278
  0
LINE
  5
138
330
C2B
100
AcDbEntity
  8
100
  6
Continuous
 62
   124
370
    13
100
AcDbLine
 10
688.9211224990153
 20
462.2325055841583
 30
0.0
 11
688.9211224990153
 21
473.3758839355218
 31
0.0
  0
LINE
  5
139
330
C2B
100
AcDbEntity
  8
100
  6
Continuous
 62
   124
370
    13
100
AcDbLine
 10
717.6211224990153
 20
461.4574993260449
 30
0.0
 11
717.6211224990153
 21
473.3758839355218
 31
0.0
  0
LINE
  5
13A
330
C2B
100
AcDbEntity
  8
100
  6
Continuous
 62
   156
370
    13
100
AcDbLine
 10
688.9211224990153
 20
471.3758839355218
 30
0.0
 11
717.6211224990153
 21
471.3758839355218
 31
0.0
  0
SOLID
  5
13B
330
C2B
100
AcDbEntity
  8
100
  6
Continuous
 62
   156
370
    13
100
AcDbTrace
 10
688.9211224990153
 20
471.3758839355218
 30
0.0
 11
692.4211202321172
 21
471.9930283679972
 31
0.0
 12
692.4211247659133
 22
470.7587395030463
 32
0.0
 13
688.9211224990153
 23
471.3758839355218
 33
0.0
  0
SOLID
  5
13C
330
C2B
100
AcDbEntity
  8
100
  6
Continuous
 62
   156
370
    13
100
AcDbTrace
 10
717.6211224990153
 20
471.3758839355218
 30
0.0
 11
714.1211247659134
 21
470.7587395030463
 31
0.0
 12
714.1211202321173
 22
471.9930283679972
 32
0.0
 13
717.6211224990153
 23
471.3758839355218
 33
0.0
  0
ENDBLK
  5
C2D
330
C2B
100
AcDbEntity
  8
0
100
AcDbBlockEnd
  0
BLOCK
  5
C2F
330
C2E
100
AcDbEntity
  8
0
100
AcDbBlockBegin
  2
DimnDraft3D3
 70
     0
 10
0.0
 20
0.0
 30
0.0
  3
DimnDraft3D3
  1

  0
MTEXT
  5
141
330
C2E
100
AcDbEntity
  8
100
  6
Continuous
 62
     5
370
    13
100
AcDbMText
 10
679.425295803019
 20
488.794798538619
 30
0.0
 40
10.0
 41
0.0
 46
0.0
 71
     7
 72
     1
  1
\W0.7577;27.1
  7
textstyle3
 11
6.123233995736766E-17
 21
1.0
 31
0.0
 73
     1
 44
0.6325301204819278
  0
LINE
  5
142
330
C2E
100
AcDbEntity
  8
100
  6
Continuous
 62
   124
370
    13
100
AcDbLine
 10
654.3558282995738
 20
511.0906318719523
 30
0.0
 11
681.1961292555617
 21
511.0906318719523
 31
0.0
  0
LINE
  5
143
330
C2E
100
AcDbEntity
  8
100
  6
Continuous
 62
   124
370
    13
100
AcDbLine
 10
654.131174993827
 20
483.9906318719522
 30
0.0
 11
681.1961292555617
 21
483.9906318719522
 31
0.0
  0
LINE
  5
144
330
C2E
100
AcDbEntity
  8
100
  6
Continuous
 62
   156
370
    13
100
AcDbLine
 10
679.1961292555617
 20
511.0906318719523
 30
0.0
 11
679.1961292555617
 21
483.9906318719522
 31
0.0
  0
SOLID
  5
145
330
C2E
100
AcDbEntity
  8
100
  6
Continuous
 62
   156
370
    13
100
AcDbTrace
 10
679.1961292555617
 20
511.0906318719523
 30
0.0
 11
679.8132736880372
 21
507.5906341388504
 31
0.0
 12
678.5789848230862
 22
507.5906296050542
 32
0.0
 13
679.1961292555617
 23
511.0906318719523
 33
0.0
  0
SOLID
  5
146
330
C2E
100
AcDbEntity
  8
100
  6
Continuous
 62
   156
370
    13
100
AcDbTrace
 10
679.1961292555617
 20
483.9906318719522
 30
0.0
 11
678.5789848230862
 21
487.4906296050542
 31
0.0
 12
679.8132736880372
 22
487.4906341388503
 32
0.0
 13
679.1961292555617
 23
483.9906318719522
 33
0.0
  0
ENDBLK
  5
C30
330
C2E
100
AcDbEntity
  8
0
100
AcDbBlockEnd
  0
BLOCK
  5
C32
330
C31
100
AcDbEntity
  8
0
100
AcDbBlockBegin
  2
DimnDraft3D4
 70
     0
 10
0.0
 20
0.0
 30
0.0
  3
DimnDraft3D4
  1

  0
MTEXT
  5
14B
330
C31
100
AcDbEntity
  8
100
  6
Continuous
 62
     5
370
    13
100
AcDbMText
 10
576.364608482861
 20
342.0894956570446
 30
0.0
 40
10.0
 41
0.0
 46
0.0
 71
     7
 72
     1
  1
\W0.6169;125
  7
textstyle3
 73
     1
 44
0.6325301204819278
  0
LINE
  5
14C
330
C31
100
AcDbEntity
  8
100
  6
Continuous
 62
   124
370
    13
100
AcDbLine
 10
660.1173251705171
 20
375.4075118422716
 30
0.0
 11
660.1173251705171
 21
340.3186622045019
 31
0.0
  0
LINE
  5
14D
330
C31
100
AcDbEntity
  8
100
  6
Continuous
 62
   124
370
    13
100
AcDbLine
 10
535.1173251705171
 20
375.4075118422717
 30
0.0
 11
535.1173251705171
 21
340.3186622045019
 31
0.0
  0
LINE
  5
14E
330
C31
100
AcDbEntity
  8
100
  6
Continuous
 62
   156
370
    13
100
AcDbLine
 10
660.1173251705171
 20
342.3186622045019
 30
0.0
 11
535.1173251705171
 21
342.3186622045019
 31
0.0
  0
SOLID
  5
14F
330
C31
100
AcDbEntity
  8
100
  6
Continuous
 62
   156
370
    13
100
AcDbTrace
 10
660.1173251705171
 20
342.3186622045019
 30
0.0
 11
656.6173274374152
 21
341.7015177720265
 31
0.0
 12
656.6173229036191
 22
342.9358066369774
 32
0.0
 13
660.1173251705171
 23
342.3186622045019
 33
0.0
  0
SOLID
  5
150
330
C31
100
AcDbEntity
  8
100
  6
Continuous
 62
   156
370
    13
100
AcDbTrace
 10
535.1173251705171
 20
342.3186622045019
 30
0.0
 11
538.6173229036191
 21
342.9358066369774
 31
0.0
 12
538.6173274374152
 22
341.7015177720265
 32
0.0
 13
535.1173251705171
 23
342.3186622045019
 33
0.0
  0
ENDBLK
  5
C33
330
C31
100
AcDbEntity
  8
0
100
AcDbBlockEnd
  0
BLOCK
  5
C35
330
C34
100
AcDbEntity
  8
0
100
AcDbBlockBegin
  2
DimnDraft3D5
 70
     0
 10
0.0
 20
0.0
 30
0.0
  3
DimnDraft3D5
  1

  0
MTEXT
  5
155
330
C34
100
AcDbEntity
  8
100
  6
Continuous
 62
     5
370
    13
100
AcDbMText
 10
524.9519787950459
 20
409.686672250825
 30
0.0
 40
10.0
 41
0.0
 46
0.0
 71
     7
 72
     1
  1
\W0.6511;69.5
  7
textstyle3
 11
6.123233995736766E-17
 21
1.0
 31
0.0
 73
     1
 44
0.6325301204819278
  0
LINE
  5
156
330
C34
100
AcDbEntity
  8
100
  6
Continuous
 62
   124
370
    13
100
AcDbLine
 10
546.8781907810005
 20
453.1933864274461
 30
0.0
 11
522.7228122475885
 21
453.1933864274461
 31
0.0
  0
LINE
  5
157
330
C34
100
AcDbEntity
  8
100
  6
Continuous
 62
   124
370
    13
100
AcDbLine
 10
546.8781907810005
 20
383.6716247408705
 30
0.0
 11
522.7228122475885
 21
383.6716247408705
 31
0.0
  0
LINE
  5
158
330
C34
100
AcDbEntity
  8
100
  6
Continuous
 62
   156
370
    13
100
AcDbLine
 10
524.7228122475885
 20
453.1933864274461
 30
0.0
 11
524.7228122475885
 21
383.6716247408705
 31
0.0
  0
SOLID
  5
159
330
C34
100
AcDbEntity
  8
100
  6
Continuous
 62
   156
370
    13
100
AcDbTrace
 10
524.7228122475885
 20
453.1933864274461
 30
0.0
 11
525.339956680064
 21
449.6933886943442
 31
0.0
 12
524.1056678151131
 22
449.693384160548
 32
0.0
 13
524.7228122475885
 23
453.1933864274461
 33
0.0
  0
SOLID
  5
15A
330
C34
100
AcDbEntity
  8
100
  6
Continuous
 62
   156
370
    13
100
AcDbTrace
 10
524.7228122475885
 20
383.6716247408705
 30
0.0
 11
524.1056678151131
 21
387.1716224739724
 31
0.0
 12
525.339956680064
 22
387.1716270077686
 32
0.0
 13
524.7228122475885
 23
383.6716247408705
 33
0.0
  0
ENDBLK
  5
C36
330
C34
100
AcDbEntity
  8
0
100
AcDbBlockEnd
  0
ENDSEC
  0
SECTION
  2
ENTITIES
  0
LINE
  5
44
330
B6B
100
AcDbEntity
  8
100
  6
Continuous
 62
   155
370
    18
100
AcDbLine
 10
650.0923314286305
 20
451.4575145588493
 30
0.0
 11
648.5925598858959
 21
452.9572861015839
 31
0.0
  0
LINE
  5
46
330
B6B
100
AcDbEntity
  8
100
  6
Continuous
 62
   155
370
    18
100
AcDbLine
 10
641.1173251705171
 20
449.4325055841583
 30
0.0000000000000006
 11
547.1173251705171
 21
449.4325055841583
 31
0.0000000000000002
  0
LINE
  5
47
330
B6B
100
AcDbEntity
  8
100
  6
Continuous
 62
   155
370
    18
100
AcDbLine
 10
641.2054886608713
 20
387.344342093804
 30
0.0000000000000006
 11
641.1173251705171
 21
387.4325055841583
 31
0.0000000000000006
  0
LINE
  5
48
330
B6B
100
AcDbEntity
  8
100
  6
Continuous
 62
   155
370
    18
100
AcDbLine
 10
641.2054886608713
 20
449.5206690745125
 30
0.0000000000000006
 11
641.2054886608713
 21
387.344342093804
 31
0.0000000000000006
  0
LINE
  5
49
330
B6B
100
AcDbEntity
  8
100
  6
Continuous
 62
   155
370
    18
100
AcDbLine
 10
641.2054886608713
 20
449.5206690745125
 30
0.0000000000000006
 11
641.1173251705171
 21
449.4325055841583
 31
0.0000000000000006
  0
LINE
  5
4A
330
B6B
100
AcDbEntity
  8
100
  6
Continuous
 62
   155
370
    18
100
AcDbLine
 10
648.1452532744023
 20
374.960205230778
 30
0.0
 11
648.1452532744023
 21
383.0378187862056
 31
0.0
  0
LINE
  5
4B
330
B6B
100
AcDbEntity
  8
100
  6
Continuous
 62
   155
370
    18
100
AcDbLine
 10
660.1173251705171
 20
461.4574993260449
 30
0.0
 11
660.1173251705171
 21
375.4075118422716
 31
0.0
  0
LINE
  5
4C
330
B6B
100
AcDbEntity
  8
100
  6
Continuous
 62
   155
370
    18
100
AcDbLine
 10
655.2583867550838
 20
390.7914439995915
 30
0.0000000000000011
 11
644.9762635859504
 21
390.7914439995915
 31
-0.0000000000000002
  0
LINE
  5
4D
330
B6B
100
AcDbEntity
  8
100
  6
Continuous
 62
   155
370
    18
100
AcDbLine
 10
648.3564595600337
 20
383.6719529155304
 30
0.0000000000000008
 11
648.1452531253761
 21
383.0378183387635
 31
0.0
  0
LINE
  5
4E
330
B6B
100
AcDbEntity
  8
100
  6
Continuous
 62
   155
370
    18
100
AcDbLine
 10
547.0893970666319
 20
374.960205230778
 30
0.0
 11
547.0893970666319
 21
383.0378187862056
 31
0.0
  0
LINE
  5
4F
330
B6B
100
AcDbEntity
  8
100
  6
Continuous
 62
   155
370
    18
100
AcDbLine
 10
644.9762635859504
 20
446.073567168725
 30
-0.0000000000000002
 11
655.2583867550838
 21
446.073567168725
 31
0.0000000000000011
  0
LINE
  5
50
330
B6B
100
AcDbEntity
  8
100
  6
Continuous
 62
   155
370
    18
100
AcDbLine
 10
547.0291616801628
 20
387.344342093804
 30
0.0000000000000002
 11
547.0291616801628
 21
449.5206690745125
 31
0.0000000000000002
  0
LINE
  5
51
330
B6B
100
AcDbEntity
  8
100
  6
Continuous
 62
   155
370
    18
100
AcDbLine
 10
648.5925598858959
 20
452.9572861015839
 30
-0.000000000000001
 11
648.3564595600337
 21
453.1933864274461
 31
0.0000000000000008
  0
LINE
  5
52
330
B6B
100
AcDbEntity
  8
100
  6
Continuous
 62
   155
370
    18
100
AcDbLine
 10
655.1173251705171
 20
445.9325055841583
 30
0.0000000000000011
 11
645.1173251705171
 21
445.9325055841583
 31
-0.0000000000000002
  0
LINE
  5
53
330
B6B
100
AcDbEntity
  8
100
  6
Continuous
 62
   155
370
    18
100
AcDbLine
 10
546.6420904551383
 20
452.9572861015839
 30
0.0000000000000003
 11
546.8781907810005
 21
453.1933864274461
 31
0.0000000000000003
  0
LINE
  5
54
330
B6B
100
AcDbEntity
  8
100
  6
Continuous
 62
   155
370
    18
100
AcDbLine
 10
641.1173251705171
 20
387.4325055841583
 30
0.0000000000000006
 11
641.1173251705171
 21
449.4325055841583
 31
0.0000000000000006
  0
LINE
  5
55
330
B6B
100
AcDbEntity
  8
100
  6
Continuous
 62
   155
370
    18
100
AcDbLine
 10
546.878302984419
 20
453.1933951367801
 30
0.0000000000000003
 11
547.0893972156581
 21
453.8271928295531
 31
0.0
  0
LINE
  5
56
330
B6B
100
AcDbEntity
  8
100
  6
Continuous
 62
   155
370
    18
100
AcDbLine
 10
655.2583867550838
 20
390.7914439995915
 30
0.0000000000000011
 11
655.1173251705171
 21
390.9325055841583
 31
0.0000000000000011
  0
LINE
  5
57
330
B6B
100
AcDbEntity
  8
100
  6
Continuous
 62
   155
370
    18
100
AcDbLine
 10
648.1452532744023
 20
461.9048059375385
 30
0.0
 11
648.1452532744023
 21
453.827192382111
 31
0.0
  0
LINE
  5
58
330
B6B
100
AcDbEntity
  8
100
  6
Continuous
 62
   155
370
    18
100
AcDbLine
 10
547.0291616801628
 20
449.5206690745125
 30
0.0000000000000002
 11
641.2054886608713
 21
449.5206690745125
 31
0.0000000000000006
  0
LINE
  5
59
330
B6B
100
AcDbEntity
  8
100
  6
Continuous
 62
   155
370
    18
100
AcDbLine
 10
655.2583867550838
 20
446.073567168725
 30
0.0000000000000011
 11
655.1173251705171
 21
445.9325055841583
 31
0.0000000000000011
  0
LINE
  5
5A
330
B6B
100
AcDbEntity
  8
100
  6
Continuous
 62
   155
370
    18
100
AcDbLine
 10
546.6420904551383
 20
383.9077250667327
 30
0.0000000000000003
 11
546.8781907810005
 21
383.6716247408705
 31
0.0000000000000003
  0
LINE
  5
5B
330
B6B
100
AcDbEntity
  8
100
  6
Continuous
 62
   155
370
    18
100
AcDbLine
 10
547.0291616801628
 20
449.5206690745125
 30
0.0000000000000002
 11
547.1173251705171
 21
449.4325055841583
 31
0.0000000000000002
  0
LINE
  5
5C
330
B6B
100
AcDbEntity
  8
100
  6
Continuous
 62
   155
370
    13
100
AcDbLine
 10
545.1423189124037
 20
373.9334659475981
 30
0.0000000000000006
 11
536.617325170517
 21
373.9334659475981
 31
-0.000000000000001
  0
LINE
  5
5D
330
B6B
100
AcDbEntity
  8
100
  6
Continuous
 62
   155
370
    13
100
AcDbLine
 10
658.6173251705171
 20
373.9334659475981
 30
0.0000000000000003
 11
650.0923314286306
 21
373.9334659475981
 31
-0.0000000000000013
  0
LINE
  5
5E
330
B6B
100
AcDbEntity
  8
100
  6
Continuous
 62
   155
370
    13
100
AcDbLine
 10
648.618285533957
 20
461.4574993260449
 30
-0.000000000000001
 11
648.618285533957
 21
452.9315604535228
 31
-0.000000000000001
  0
LINE
  5
5F
330
B6B
100
AcDbEntity
  8
100
  6
Continuous
 62
   155
370
    13
100
AcDbLine
 10
546.6163648070773
 20
452.9315604535229
 30
0.0000000000000003
 11
546.6163648070773
 21
461.4574993260449
 31
0.0000000000000003
  0
LINE
  5
60
330
B6B
100
AcDbEntity
  8
100
  6
Continuous
 62
   155
370
    13
100
AcDbLine
 10
649.0319942704247
 20
462.5178364842507
 30
0.0000000000000024
 11
648.5844984827138
 21
462.9653322719616
 31
-0.000000000000001
  0
LINE
  5
61
330
B6B
100
AcDbEntity
  8
100
  6
Continuous
 62
   155
370
    13
100
AcDbLine
 10
546.6163648070773
 20
383.9334507147937
 30
0.0000000000000003
 11
648.6182855339571
 21
383.9334507147937
 31
-0.000000000000001
  0
LINE
  5
62
330
B6B
100
AcDbEntity
  8
100
  6
Continuous
 62
   155
370
    13
100
AcDbLine
 10
648.618285533957
 20
452.9315604535228
 30
-0.000000000000001
 11
546.6163648070772
 21
452.9315604535228
 31
0.0000000000000003
  0
LINE
  5
63
330
B6B
100
AcDbEntity
  8
100
  6
Continuous
 62
   155
370
    13
100
AcDbLine
 10
536.6173251705171
 20
462.9315452207185
 30
-0.000000000000001
 11
545.1423189124038
 21
462.9315452207185
 31
0.0000000000000006
  0
LINE
  5
64
330
B6B
100
AcDbEntity
  8
100
  6
Continuous
 62
   155
370
    13
100
AcDbLine
 10
648.618285533957
 20
383.9334507147937
 30
-0.000000000000001
 11
648.618285533957
 21
375.4075118422717
 31
-0.000000000000001
  0
LINE
  5
65
330
B6B
100
AcDbEntity
  8
100
  6
Continuous
 62
   155
370
    13
100
AcDbLine
 10
546.6163648070773
 20
375.4075118422716
 30
0.0000000000000003
 11
546.6163648070773
 21
383.9334507147937
 31
0.0000000000000003
  0
LINE
  5
66
330
B6B
100
AcDbEntity
  8
100
  6
Continuous
 62
   155
370
    13
100
AcDbLine
 10
546.2026560706096
 20
374.3471746840658
 30
-0.0000000000000031
 11
546.6501518583204
 21
373.8996788963549
 31
0.0000000000000003
  0
LINE
  5
67
330
B6B
100
AcDbEntity
  8
100
  6
Continuous
 62
   155
370
    13
100
AcDbLine
 10
546.2026560706096
 20
462.5178364842507
 30
-0.0000000000000031
 11
546.6501518583204
 21
462.9653322719616
 31
0.0000000000000003
  0
LINE
  5
68
330
B6B
100
AcDbEntity
  8
100
  6
Continuous
 62
   155
370
    13
100
AcDbLine
 10
649.0319942704247
 20
374.3471746840658
 30
0.0000000000000024
 11
648.5844984827138
 21
373.8996788963549
 31
-0.000000000000001
  0
LINE
  5
69
330
B6B
100
AcDbEntity
  8
100
  6
Continuous
 62
   155
370
    13
100
AcDbLine
 10
650.0923314286312
 20
462.9315452207185
 30
-0.0000000000000013
 11
658.6173251705171
 21
462.9315452207185
 31
0.0000000000000003
  0
LINE
  5
6A
330
B6B
100
AcDbEntity
  8
100
  6
Continuous
 62
   155
370
    18
100
AcDbLine
 10
660.1173251705171
 20
461.9043489882073
 30
0.0
 11
660.1173251705171
 21
461.4574993260449
 31
0.0
  0
LINE
  5
6B
330
B6B
100
AcDbEntity
  8
100
  6
Continuous
 62
   155
370
    18
100
AcDbLine
 10
648.3564595600337
 20
453.1933864274461
 30
0.0000000000000008
 11
546.8781907810005
 21
453.1933864274461
 31
0.0000000000000003
  0
LINE
  5
6C
330
B6B
100
AcDbEntity
  8
100
  6
Continuous
 62
   155
370
    18
100
AcDbLine
 10
644.9762635859504
 20
446.073567168725
 30
-0.0000000000000002
 11
645.1173251705171
 21
445.9325055841583
 31
-0.0000000000000002
  0
LINE
  5
6D
330
B6B
100
AcDbEntity
  8
100
  6
Continuous
 62
   155
370
    18
100
AcDbLine
 10
547.0893970666319
 20
461.9048059375385
 30
0.0
 11
547.0893970666319
 21
453.827192382111
 31
0.0
  0
LINE
  5
6E
330
B6B
100
AcDbEntity
  8
100
  6
Continuous
 62
   155
370
    18
100
AcDbLine
 10
545.1423189124037
 20
451.4575145588493
 30
0.0
 11
546.6420904551383
 21
452.9572861015839
 31
0.0
  0
LINE
  5
6F
330
B6B
100
AcDbEntity
  8
100
  6
Continuous
 62
   155
370
    18
100
AcDbLine
 10
648.5925598858959
 20
383.9077250667327
 30
0.0
 11
650.0923314286305
 21
385.4074966094673
 31
0.0
  0
LINE
  5
70
330
B6B
100
AcDbEntity
  8
100
  6
Continuous
 62
   155
370
    18
100
AcDbLine
 10
536.6173251705171
 20
373.4604336880434
 30
0.0000000000000001
 11
545.5896255238973
 21
373.4604336880434
 31
0.0000000000000001
  0
LINE
  5
71
330
B6B
100
AcDbEntity
  8
100
  6
Continuous
 62
   155
370
    18
100
AcDbLine
 10
547.0291616801628
 20
387.344342093804
 30
0.0000000000000002
 11
547.1173251705171
 21
387.4325055841583
 31
0.0000000000000002
  0
LINE
  5
72
330
B6B
100
AcDbEntity
  8
100
  6
Continuous
 62
   155
370
    18
100
AcDbLine
 10
660.1173251705171
 20
375.4075118422716
 30
0.0
 11
660.1173251705171
 21
374.9606621801092
 31
0.0
  0
LINE
  5
73
330
B6B
100
AcDbEntity
  8
100
  6
Continuous
 62
   155
370
    18
100
AcDbLine
 10
644.9762635859504
 20
390.7914439995915
 30
-0.0000000000000002
 11
644.9762635859504
 21
446.073567168725
 31
-0.0000000000000002
  0
LINE
  5
74
330
B6B
100
AcDbEntity
  8
100
  6
Continuous
 62
   155
370
    18
100
AcDbLine
 10
658.6173251705171
 20
373.4604336880434
 30
0.0000000000000001
 11
649.6450248171368
 21
373.4604336880434
 31
0.0000000000000001
  0
LINE
  5
75
330
B6B
100
AcDbEntity
  8
100
  6
Continuous
 62
   155
370
    18
100
AcDbLine
 10
536.6173251705171
 20
463.4045774802731
 30
0.0000000000000001
 11
545.5896255238973
 21
463.4045774802731
 31
0.0000000000000001
  0
LINE
  5
76
330
B6B
100
AcDbEntity
  8
100
  6
Continuous
 62
   155
370
    18
100
AcDbLine
 10
547.1173251705171
 20
449.4325055841583
 30
0.0000000000000002
 11
547.1173251705171
 21
387.4325055841583
 31
0.0000000000000002
  0
LINE
  5
77
330
B6B
100
AcDbEntity
  8
100
  6
Continuous
 62
   155
370
    18
100
AcDbLine
 10
547.1173251705171
 20
387.4325055841583
 30
0.0000000000000002
 11
641.1173251705171
 21
387.4325055841583
 31
0.0000000000000006
  0
LINE
  5
78
330
B6B
100
AcDbEntity
  8
100
  6
Continuous
 62
   155
370
    18
100
AcDbLine
 10
655.1173251705171
 20
390.9325055841583
 30
0.0000000000000011
 11
655.1173251705171
 21
445.9325055841583
 31
0.0000000000000011
  0
LINE
  5
79
330
B6B
100
AcDbEntity
  8
100
  6
Continuous
 62
   155
370
    18
100
AcDbLine
 10
655.2583867550838
 20
446.073567168725
 30
0.0000000000000011
 11
655.2583867550838
 21
390.7914439995915
 31
0.0000000000000011
  0
LINE
  5
7A
330
B6B
100
AcDbEntity
  8
100
  6
Continuous
 62
   155
370
    18
100
AcDbLine
 10
546.6420904551383
 20
383.9077250667327
 30
0.0
 11
545.1423189124037
 21
385.4074966094673
 31
0.0
  0
LINE
  5
7B
330
B6B
100
AcDbEntity
  8
100
  6
Continuous
 62
   155
370
    18
100
AcDbLine
 10
648.1452531253778
 20
453.827192829548
 30
0.0
 11
648.3563473566153
 21
453.1933951367801
 31
0.0000000000000008
  0
LINE
  5
7C
330
B6B
100
AcDbEntity
  8
100
  6
Continuous
 62
   155
370
    18
100
AcDbLine
 10
645.1173251705171
 20
390.9325055841583
 30
-0.0000000000000002
 11
655.1173251705171
 21
390.9325055841583
 31
0.0000000000000011
  0
LINE
  5
7D
330
B6B
100
AcDbEntity
  8
100
  6
Continuous
 62
   155
370
    18
100
AcDbLine
 10
645.1173251705171
 20
445.9325055841583
 30
-0.0000000000000002
 11
645.1173251705171
 21
390.9325055841583
 31
-0.0000000000000002
  0
LINE
  5
7E
330
B6B
100
AcDbEntity
  8
100
  6
Continuous
 62
   155
370
    18
100
AcDbLine
 10
644.9762635859504
 20
390.7914439995915
 30
-0.0000000000000002
 11
645.1173251705171
 21
390.9325055841583
 31
-0.0000000000000002
  0
LINE
  5
7F
330
B6B
100
AcDbEntity
  8
100
  6
Continuous
 62
   155
370
    18
100
AcDbLine
 10
546.8781907810005
 20
383.6716247408705
 30
0.0000000000000003
 11
648.3564595600337
 21
383.6716247408705
 31
0.0000000000000008
  0
LINE
  5
80
330
B6B
100
AcDbEntity
  8
100
  6
Continuous
 62
   155
370
    18
100
AcDbLine
 10
649.6450248171368
 20
463.4045774802731
 30
0.0000000000000001
 11
658.6173251705171
 21
463.4045774802731
 31
0.0000000000000001
  0
LINE
  5
81
330
B6B
100
AcDbEntity
  8
100
  6
Continuous
 62
   155
370
    18
100
AcDbLine
 10
648.5925598858959
 20
383.9077250667327
 30
-0.000000000000001
 11
648.3564595600337
 21
383.6716247408705
 31
0.0000000000000008
  0
LINE
  5
82
330
B6B
100
AcDbEntity
  8
100
  6
Continuous
 62
   155
370
    18
100
AcDbLine
 10
535.1173251705171
 20
461.4574993260449
 30
-0.0000000000000007
 11
535.1173251705171
 21
461.9043489882073
 31
0.0
  0
LINE
  5
83
330
B6B
100
AcDbEntity
  8
100
  6
Continuous
 62
   155
370
    18
100
AcDbLine
 10
641.2054886608713
 20
387.344342093804
 30
0.0000000000000006
 11
547.0291616801628
 21
387.344342093804
 31
0.0000000000000002
  0
LINE
  5
84
330
B6B
100
AcDbEntity
  8
100
  6
Continuous
 62
   155
370
    18
100
AcDbLine
 10
535.1173251705171
 20
374.9606621801093
 30
0.0
 11
535.1173251705171
 21
375.4075118422716
 31
-0.0000000000000007
  0
LINE
  5
85
330
B6B
100
AcDbEntity
  8
100
  6
Continuous
 62
   155
370
    18
100
AcDbLine
 10
535.1173251705171
 20
375.4075118422717
 30
-0.0000000000000007
 11
535.1173251705171
 21
461.4574993260449
 31
-0.0000000000000007
  0
LINE
  5
86
330
B6B
100
AcDbEntity
  8
100
  6
Continuous
 62
   155
370
    18
100
AcDbLine
 10
547.0893972156564
 20
383.0378183387686
 30
0.0
 11
546.878302984419
 21
383.6716160315365
 31
0.0000000000000003
  0
LINE
  5
87
330
B6B
100
AcDbEntity
  8
100
  6
Continuous
 62
   155
370
    18
100
AcDbLine
 10
535.1173251705171
 20
483.9906318719522
 30
0.0
 11
536.6173251705171
 21
483.9906318719522
 31
0.0
  0
LINE
  5
88
330
B6B
100
AcDbEntity
  8
100
  6
Continuous
 62
   155
370
    18
100
AcDbLine
 10
547.0893970666319
 20
483.9906318719522
 30
0.0
 11
545.5896255238973
 21
483.9906318719522
 31
0.0
  0
LINE
  5
89
330
B6B
100
AcDbEntity
  8
100
  6
Continuous
 62
   155
370
    18
100
AcDbLine
 10
545.0890924105441
 20
483.9906318719522
 30
0.0
 11
545.1170205144293
 21
482.3906318719523
 31
0.0
  0
LINE
  5
8A
330
B6B
100
AcDbEntity
  8
100
  6
Continuous
 62
   155
370
    18
100
AcDbLine
 10
650.0923314286305
 20
511.0906318719523
 30
0.0
 11
658.6173251705171
 21
511.0906318719523
 31
0.0
  0
LINE
  5
8B
330
B6B
100
AcDbEntity
  8
100
  6
Continuous
 62
   155
370
    18
100
AcDbLine
 10
545.1423189124037
 20
511.0906318719523
 30
0.0
 11
650.0923314286305
 21
511.0906318719523
 31
0.0
  0
LINE
  5
8C
330
B6B
100
AcDbEntity
  8
100
  6
Continuous
 62
   155
370
    18
100
AcDbLine
 10
536.6173251705171
 20
511.0906318719523
 30
0.0
 11
545.1423189124037
 21
511.0906318719523
 31
0.0
  0
LINE
  5
8D
330
B6B
100
AcDbEntity
  8
100
  6
Continuous
 62
   155
370
    18
100
AcDbLine
 10
536.6173251705171
 20
483.9906318719522
 30
0.0
 11
545.5896255238973
 21
483.9906318719522
 31
0.0
  0
LINE
  5
8E
330
B6B
100
AcDbEntity
  8
100
  6
Continuous
 62
   155
370
    18
100
AcDbLine
 10
650.1455579304901
 20
483.9906318719522
 30
0.0
 11
650.1176298266049
 21
482.3906318719523
 31
0.0
  0
LINE
  5
8F
330
B6B
100
AcDbEntity
  8
100
  6
Continuous
 62
   155
370
    18
100
AcDbLine
 10
660.1173251705171
 20
509.5906318719523
 30
0.0
 11
660.1173251705171
 21
483.9906318719522
 31
0.0
  0
LINE
  5
90
330
B6B
100
AcDbEntity
  8
100
  6
Continuous
 62
   155
370
    18
100
AcDbLine
 10
658.6173251705171
 20
483.9906318719522
 30
0.0
 11
649.6450248171368
 21
483.9906318719522
 31
0.0
  0
LINE
  5
91
330
B6B
100
AcDbEntity
  8
100
  6
Continuous
 62
   155
370
    18
100
AcDbLine
 10
546.6420904551383
 20
509.6168104816082
 30
0.0
 11
547.0893970666319
 21
483.9906318719522
 31
0.0
  0
LINE
  5
92
330
B6B
100
AcDbEntity
  8
100
  6
Continuous
 62
   155
370
    18
100
AcDbLine
 10
658.6173251705171
 20
483.9906318719522
 30
0.0
 11
660.1173251705171
 21
483.9906318719522
 31
0.0
  0
LINE
  5
93
330
B6B
100
AcDbEntity
  8
100
  6
Continuous
 62
   155
370
    18
100
AcDbLine
 10
536.5173251705171
 20
483.9906318719522
 30
0.0
 11
536.5173251705171
 21
482.3906318719523
 31
0.0
  0
LINE
  5
94
330
B6B
100
AcDbEntity
  8
100
  6
Continuous
 62
   155
370
    18
100
AcDbLine
 10
648.1452532744023
 20
483.9906318719522
 30
0.0
 11
649.6450248171368
 21
483.9906318719522
 31
0.0
  0
LINE
  5
95
330
B6B
100
AcDbEntity
  8
100
  6
Continuous
 62
   155
370
    18
100
AcDbLine
 10
546.8781907810005
 20
496.0906318719523
 30
0.0
 11
648.3564595600337
 21
496.0906318719523
 31
0.0
  0
LINE
  5
96
330
B6B
100
AcDbEntity
  8
100
  6
Continuous
 62
   155
370
    18
100
AcDbLine
 10
648.1452532744023
 20
483.9906318719522
 30
0.0
 11
648.5925598858959
 21
509.6168104816082
 31
0.0
  0
LINE
  5
97
330
B6B
100
AcDbEntity
  8
100
  6
Continuous
 62
   155
370
    18
100
AcDbLine
 10
658.7173251705171
 20
483.9906318719522
 30
0.0
 11
658.7173251705171
 21
482.3906318719523
 31
0.0
  0
LINE
  5
98
330
B6B
100
AcDbEntity
  8
100
  6
Continuous
 62
   155
370
    18
100
AcDbLine
 10
535.1173251705171
 20
483.9906318719522
 30
0.0
 11
535.1173251705171
 21
509.5906318719523
 31
0.0
  0
LINE
  5
99
330
B6B
100
AcDbEntity
  8
100
  6
Continuous
 62
   155
370
    18
100
AcDbLine
 10
536.5173251705171
 20
482.3906318719523
 30
0.0
 11
545.1170205144292
 21
482.3906318719523
 31
0.0
  0
LINE
  5
9A
330
B6B
100
AcDbEntity
  8
100
  6
Continuous
 62
   155
370
    18
100
AcDbLine
 10
650.1176298266049
 20
482.3906318719523
 30
0.0
 11
658.7173251705171
 21
482.3906318719523
 31
0.0
  0
LINE
  5
9B
330
B6B
100
AcDbEntity
  8
100
  6
Continuous
 62
   155
370
    18
100
AcDbLine
 10
703.0212787490152
 20
385.6789141502834
 30
0.0
 11
705.0212474990152
 21
385.7138237346691
 31
0.0
  0
LINE
  5
9C
330
B6B
100
AcDbEntity
  8
100
  6
Continuous
 62
   155
370
    18
100
AcDbLine
 10
707.0212162490152
 20
385.7487333190548
 30
0.0
 11
709.0211849990153
 21
385.7836429034404
 31
0.0
  0
LINE
  5
9D
330
B6B
100
AcDbEntity
  8
100
  6
Continuous
 62
   155
370
    18
100
AcDbLine
 10
703.0212787490152
 20
451.1860970180331
 30
0.0
 11
705.0212474990152
 21
451.1511874336474
 31
0.0
  0
LINE
  5
9E
330
B6B
100
AcDbEntity
  8
100
  6
Continuous
 62
   155
370
    18
100
AcDbLine
 10
707.0212162490152
 20
451.1162778492618
 30
0.0
 11
709.0211849990153
 21
451.0813682648761
 31
0.0
  0
LINE
  5
9F
330
B6B
100
AcDbEntity
  8
100
  6
Continuous
 62
   155
370
    18
100
AcDbLine
 10
696.0211224990135
 20
383.4325055841582
 30
0.0
 11
696.0211224990135
 21
453.4325055841583
 31
0.0
  0
LINE
  5
A0
330
B6B
100
AcDbEntity
  8
100
  6
Continuous
 62
   155
370
    18
100
AcDbLine
 10
699.0211224990153
 20
456.5030363764415
 30
0.0
 11
709.0211224990153
 21
456.5030363764415
 31
0.0
  0
LINE
  5
A1
330
B6B
100
AcDbEntity
  8
100
  6
Continuous
 62
   155
370
    13
100
AcDbLine
 10
711.1923156440808
 20
381.2613124390926
 30
0.0
 11
711.1424428425748
 21
381.3111852405986
 31
0.0
  0
LINE
  5
A2
330
B6B
100
AcDbEntity
  8
100
  6
Continuous
 62
   155
370
    13
100
AcDbLine
 10
696.8499293539487
 20
381.2613124390935
 30
0.0
 11
696.8998021554547
 21
381.3111852405995
 31
0.0
  0
LINE
  5
A3
330
B6B
100
AcDbEntity
  8
100
  6
Continuous
 62
   155
370
    13
100
AcDbLine
 10
711.142442842575
 20
455.5538259277179
 30
0.0
 11
711.1923156440808
 21
455.6036987292238
 31
0.0
  0
LINE
  5
A4
330
B6B
100
AcDbEntity
  8
100
  6
Continuous
 62
   155
370
    13
100
AcDbLine
 10
696.8998021554546
 20
455.553825927717
 30
0.0
 11
696.8499293539487
 21
455.603698729223
 31
0.0
  0
LINE
  5
A5
330
B6B
100
AcDbEntity
  8
100
  6
Continuous
 62
   155
370
    18
100
AcDbLine
 10
700.7962571634914
 20
385.1325055841583
 30
0.0
 11
700.7962571634914
 21
415.8325055841582
 31
0.0
  0
LINE
  5
A6
330
B6B
100
AcDbEntity
  8
100
  6
Continuous
 62
   155
370
    18
100
AcDbLine
 10
703.0211224990153
 20
415.8325055841582
 30
0.0
 11
703.0211224990153
 21
385.1325055841582
 31
0.0
  0
LINE
  5
A7
330
B6B
100
AcDbEntity
  8
100
  6
Continuous
 62
   155
370
    18
100
AcDbLine
 10
705.0211224990153
 20
451.7325055841583
 30
0.0
 11
705.0211224990153
 21
421.0325055841582
 31
0.0
  0
LINE
  5
A8
330
B6B
100
AcDbEntity
  8
100
  6
Continuous
 62
   155
370
    18
100
AcDbLine
 10
717.6211224990153
 20
461.4574993260449
 30
0.0
 11
717.6211224990153
 21
375.4075118422716
 31
0.0
  0
LINE
  5
A9
330
B6B
100
AcDbEntity
  8
100
  6
Continuous
 62
   155
370
    18
100
AcDbLine
 10
709.0211224990153
 20
415.8325055841582
 30
0.0
 11
709.0211224990153
 21
385.1325055841583
 31
0.0
  0
LINE
  5
AA
330
B6B
100
AcDbEntity
  8
100
  6
Continuous
 62
   155
370
    18
100
AcDbLine
 10
707.245987834539
 20
415.8325055841582
 30
0.0
 11
707.245987834539
 21
385.7527415216583
 31
0.0
  0
LINE
  5
AB
330
B6B
100
AcDbEntity
  8
100
  6
Continuous
 62
   155
370
    18
100
AcDbLine
 10
690.5211224990153
 20
461.9043489882073
 30
0.0
 11
690.5211224990153
 21
463.4045774802731
 31
0.0
  0
LINE
  5
AC
330
B6B
100
AcDbEntity
  8
100
  6
Continuous
 62
   155
370
    18
100
AcDbLine
 10
709.0211224990153
 20
451.7325055841583
 30
0.0
 11
709.0211224990153
 21
421.0325055841582
 31
0.0
  0
LINE
  5
AD
330
B6B
100
AcDbEntity
  8
100
  6
Continuous
 62
   155
370
    18
100
AcDbLine
 10
701.0211224990153
 20
421.0325055841582
 30
0.0
 11
701.0211224990153
 21
451.7325055841583
 31
0.0
  0
LINE
  5
AE
330
B6B
100
AcDbEntity
  8
100
  6
Continuous
 62
   155
370
    18
100
AcDbLine
 10
707.0211224990153
 20
451.7325055841583
 30
0.0
 11
707.0211224990153
 21
421.0325055841582
 31
0.0
  0
LINE
  5
AF
330
B6B
100
AcDbEntity
  8
100
  6
Continuous
 62
   155
370
    18
100
AcDbLine
 10
701.0211224990153
 20
385.1325055841583
 30
0.0
 11
701.0211224990153
 21
415.8325055841582
 31
0.0
  0
LINE
  5
B0
330
B6B
100
AcDbEntity
  8
100
  6
Continuous
 62
   155
370
    18
100
AcDbLine
 10
690.5211224990153
 20
374.9606621801093
 30
0.0
 11
690.5211224990153
 21
373.4604336880434
 31
0.0
  0
LINE
  5
B1
330
B6B
100
AcDbEntity
  8
100
  6
Continuous
 62
   155
370
    18
100
AcDbLine
 10
695.9505917067302
 20
383.4325055841582
 30
0.0
 11
695.9505917067302
 21
453.4325055841583
 31
0.0
  0
LINE
  5
B2
330
B6B
100
AcDbEntity
  8
100
  6
Continuous
 62
   155
370
    18
100
AcDbLine
 10
699.245987834539
 20
421.0325055841582
 30
0.0
 11
699.245987834539
 21
451.7325055841583
 31
0.0
  0
LINE
  5
B3
330
B6B
100
AcDbEntity
  8
100
  6
Continuous
 62
   155
370
    18
100
AcDbLine
 10
699.0211224990153
 20
421.0325055841582
 30
0.0
 11
699.0211224990153
 21
451.7325055841583
 31
0.0
  0
LINE
  5
B4
330
B6B
100
AcDbEntity
  8
100
  6
Continuous
 62
   155
370
    18
100
AcDbLine
 10
704.7962571634914
 20
451.1549618341583
 30
0.0
 11
704.7962571634914
 21
421.0325055841582
 31
0.0
  0
LINE
  5
B5
330
B6B
100
AcDbEntity
  8
100
  6
Continuous
 62
   155
370
    18
100
AcDbLine
 10
708.7962571634914
 20
415.8325055841582
 30
0.0
 11
708.7962571634914
 21
385.7800837091582
 31
0.0
  0
LINE
  5
B6
330
B6B
100
AcDbEntity
  8
100
  6
Continuous
 62
   155
370
    18
100
AcDbLine
 10
707.0211224990153
 20
415.8325055841582
 30
0.0
 11
707.0211224990153
 21
385.1325055841582
 31
0.0
  0
LINE
  5
B7
330
B6B
100
AcDbEntity
  8
100
  6
Continuous
 62
   155
370
    18
100
AcDbLine
 10
699.0211224990153
 20
456.4325055841583
 30
0.0
 11
709.0211224990153
 21
456.4325055841583
 31
0.0
  0
LINE
  5
B8
330
B6B
100
AcDbEntity
  8
100
  6
Continuous
 62
   155
370
    18
100
AcDbLine
 10
712.0211224990153
 20
453.4325055841583
 30
0.0
 11
712.0211224990153
 21
383.4325055841582
 31
0.0
  0
LINE
  5
B9
330
B6B
100
AcDbEntity
  8
100
  6
Continuous
 62
   155
370
    18
100
AcDbLine
 10
707.245987834539
 20
451.1122696466583
 30
0.0
 11
707.245987834539
 21
421.0325055841582
 31
0.0
  0
LINE
  5
BA
330
B6B
100
AcDbEntity
  8
100
  6
Continuous
 62
   155
370
    18
100
AcDbLine
 10
704.7962571634914
 20
415.8325055841582
 30
0.0
 11
704.7962571634914
 21
385.7100493341583
 31
0.0
  0
LINE
  5
BB
330
B6B
100
AcDbEntity
  8
100
  6
Continuous
 62
   155
370
    18
100
AcDbLine
 10
716.1473011086712
 20
373.9077402995371
 30
0.0
 11
690.5211224990153
 21
373.4604336880434
 31
0.0
  0
LINE
  5
BC
330
B6B
100
AcDbEntity
  8
100
  6
Continuous
 62
   155
370
    18
100
AcDbLine
 10
712.0916532912985
 20
453.4325055841583
 30
0.0
 11
712.0916532912985
 21
383.4325055841582
 31
0.0
  0
LINE
  5
BD
330
B6B
100
AcDbEntity
  8
100
  6
Continuous
 62
   155
370
    18
100
AcDbLine
 10
700.7962571634914
 20
421.0325055841582
 30
0.0
 11
700.7962571634914
 21
451.7325055841583
 31
0.0
  0
LINE
  5
BE
330
B6B
100
AcDbEntity
  8
100
  6
Continuous
 62
   155
370
    18
100
AcDbLine
 10
703.245987834539
 20
451.1818243341583
 30
0.0
 11
703.245987834539
 21
421.0325055841582
 31
0.0
  0
LINE
  5
BF
330
B6B
100
AcDbEntity
  8
100
  6
Continuous
 62
   155
370
    18
100
AcDbLine
 10
703.245987834539
 20
415.8325055841582
 30
0.0
 11
703.245987834539
 21
385.6831868341582
 31
0.0
  0
LINE
  5
C0
330
B6B
100
AcDbEntity
  8
100
  6
Continuous
 62
   155
370
    18
100
AcDbLine
 10
703.0211224990153
 20
451.7325055841583
 30
0.0
 11
703.0211224990153
 21
421.0325055841582
 31
0.0
  0
LINE
  5
C1
330
B6B
100
AcDbEntity
  8
100
  6
Continuous
 62
   155
370
    18
100
AcDbLine
 10
690.5211224990153
 20
461.9043489882073
 30
0.0
 11
690.5211224990153
 21
374.9606621801092
 31
0.0
  0
LINE
  5
C2
330
B6B
100
AcDbEntity
  8
100
  6
Continuous
 62
   155
370
    18
100
AcDbLine
 10
705.0211224990153
 20
415.8325055841582
 30
0.0
 11
705.0211224990153
 21
385.1325055841583
 31
0.0
  0
LINE
  5
C3
330
B6B
100
AcDbEntity
  8
100
  6
Continuous
 62
   155
370
    18
100
AcDbLine
 10
708.7962571634914
 20
451.0849274591583
 30
0.0
 11
708.7962571634914
 21
421.0325055841582
 31
0.0
  0
LINE
  5
C4
330
B6B
100
AcDbEntity
  8
100
  6
Continuous
 62
   155
370
    18
100
AcDbLine
 10
688.9211224990153
 20
462.2325055841583
 30
0.0
 11
688.9211224990153
 21
374.6325055841583
 31
0.0
  0
LINE
  5
C5
330
B6B
100
AcDbEntity
  8
100
  6
Continuous
 62
   155
370
    18
100
AcDbLine
 10
690.5211224990153
 20
374.6325055841583
 30
0.0
 11
688.9211224990153
 21
374.6325055841583
 31
0.0
  0
LINE
  5
C6
330
B6B
100
AcDbEntity
  8
100
  6
Continuous
 62
   155
370
    18
100
AcDbLine
 10
709.0211224990153
 20
380.361974791875
 30
0.0
 11
699.0211224990153
 21
380.361974791875
 31
0.0
  0
LINE
  5
C7
330
B6B
100
AcDbEntity
  8
100
  6
Continuous
 62
   155
370
    18
100
AcDbLine
 10
699.0211224990153
 20
385.1325055841582
 30
0.0
 11
699.0211224990153
 21
415.8325055841582
 31
0.0
  0
LINE
  5
C8
330
B6B
100
AcDbEntity
  8
100
  6
Continuous
 62
   155
370
    18
100
AcDbLine
 10
690.5211224990153
 20
463.4045774802731
 30
0.0
 11
716.1473011086712
 21
462.9572708687795
 31
0.0
  0
LINE
  5
C9
330
B6B
100
AcDbEntity
  8
100
  6
Continuous
 62
   155
370
    18
100
AcDbLine
 10
709.0211224990153
 20
380.4325055841582
 30
0.0
 11
699.0211224990153
 21
380.4325055841582
 31
0.0
  0
LINE
  5
CA
330
B6B
100
AcDbEntity
  8
100
  6
Continuous
 62
   155
370
    18
100
AcDbLine
 10
690.5211224990153
 20
462.2325055841583
 30
0.0
 11
688.9211224990153
 21
462.2325055841583
 31
0.0
  0
LINE
  5
CB
330
B6B
100
AcDbEntity
  8
100
  6
Continuous
 62
   155
370
    18
100
AcDbLine
 10
699.245987834539
 20
385.1325055841583
 30
0.0
 11
699.245987834539
 21
415.8325055841582
 31
0.0
  0
LINE
  5
CC
330
B6B
100
AcDbEntity
  8
100
  6
Continuous
 62
   156
370
    13
100
AcDbLine
 10
627.9127099345841
 20
496.0906318719523
 30
0.0
 11
627.9127099345841
 21
545.6488300205331
 31
0.0
  0
LINE
  5
CD
330
B6B
100
AcDbEntity
  8
100
  6
Continuous
 62
   156
370
    18
100
AcDbLine
 10
627.9127099345841
 20
496.0906318719523
 30
0.0
 11
627.2955655021086
 21
499.5906296050542
 31
0.0
  0
LINE
  5
CE
330
B6B
100
AcDbEntity
  8
100
  6
Continuous
 62
   156
370
    18
100
AcDbLine
 10
627.2955655021086
 20
499.5906296050542
 30
0.0
 11
628.5298543670596
 21
499.5906341388504
 31
0.0
  0
LINE
  5
CF
330
B6B
100
AcDbEntity
  8
100
  6
Continuous
 62
   156
370
    18
100
AcDbLine
 10
628.5298543670596
 20
499.5906341388504
 30
0.0
 11
627.9127099345841
 21
496.0906318719523
 31
0.0
  0
LINE
  5
D0
330
B6B
100
AcDbEntity
  8
100
  6
Continuous
 62
   156
370
    18
100
AcDbLine
 10
627.9127099345841
 20
509.5906318719523
 30
0.0
 11
628.5298543670596
 21
506.0906341388504
 31
0.0
  0
LINE
  5
D1
330
B6B
100
AcDbEntity
  8
100
  6
Continuous
 62
   156
370
    18
100
AcDbLine
 10
628.5298543670596
 20
506.0906341388504
 30
0.0
 11
627.2955655021086
 21
506.0906296050542
 31
0.0
  0
LINE
  5
D2
330
B6B
100
AcDbEntity
  8
100
  6
Continuous
 62
   156
370
    18
100
AcDbLine
 10
627.2955655021086
 20
506.0906296050542
 30
0.0
 11
627.9127099345841
 21
509.5906318719523
 31
0.0
  0
LINE
  5
D3
330
B6B
100
AcDbEntity
  8
100
  6
Continuous
 62
     3
370
    18
100
AcDbLine
 10
654.3548282995738
 20
511.0906318719523
 30
0.0
 11
654.3558282995738
 21
511.0906318719523
 31
0.0
  0
LINE
  5
D4
330
B6B
100
AcDbEntity
  8
100
  6
Continuous
 62
     3
370
    18
100
AcDbLine
 10
654.131174993827
 20
483.9906318719522
 30
0.0
 11
654.130174993827
 21
483.9906318719522
 31
0.0
  0
CIRCLE
  5
D7
330
B6B
100
AcDbEntity
  8
100
  6
Continuous
 62
   155
370
    18
100
AcDbCircle
 10
540.1173251705162
 20
378.4325055841582
 30
0.0000000000000266
 40
3.000000000000001
  0
CIRCLE
  5
DA
330
B6B
100
AcDbEntity
  8
100
  6
Continuous
 62
   155
370
    18
100
AcDbCircle
 10
655.11732517052
 20
378.4325055841582
 30
0.0000000000000011
 40
3.000000000000001
  0
CIRCLE
  5
DB
330
B6B
100
AcDbEntity
  8
100
  6
Continuous
 62
   155
370
    18
100
AcDbCircle
 10
655.1173251705161
 20
458.4325055841583
 30
0.0000000000001466
 40
1.750000000000001
  0
CIRCLE
  5
DC
330
B6B
100
AcDbEntity
  8
100
  6
Continuous
 62
   155
370
    18
100
AcDbCircle
 10
540.1173251705161
 20
458.4325055841582
 30
0.0000000000001466
 40
1.750000000000001
  0
CIRCLE
  5
DD
330
B6B
100
AcDbEntity
  8
100
  6
Continuous
 62
   155
370
    18
100
AcDbCircle
 10
655.1173251705161
 20
378.4325055841582
 30
0.0000000000001466
 40
1.750000000000001
  0
CIRCLE
  5
E8
330
B6B
100
AcDbEntity
  8
100
  6
Continuous
 62
   155
370
    18
100
AcDbCircle
 10
540.1173251705161
 20
378.4325055841582
 30
0.0000000000001466
 40
1.750000000000001
  0
CIRCLE
  5
E9
330
B6B
100
AcDbEntity
  8
100
  6
Continuous
 62
   155
370
    18
100
AcDbCircle
 10
655.1173251705198
 20
458.4325055841583
 30
0.0000000000000011
 40
3.000000000000001
  0
CIRCLE
  5
EA
330
B6B
100
AcDbEntity
  8
100
  6
Continuous
 62
   155
370
    18
100
AcDbCircle
 10
540.1173251705162
 20
458.4325055841583
 30
0.0000000000000266
 40
3.000000000000001
  0
ARC
  5
F6
330
B6B
100
AcDbEntity
  8
100
  6
Continuous
 62
   155
370
    18
100
AcDbCircle
 10
536.6173251705171
 20
509.5906318719523
 30
0.0
 40
1.500000000000001
100
AcDbArc
 50
90.0
 51
180.0
  0
ARC
  5
F7
330
B6B
100
AcDbEntity
  8
100
  6
Continuous
 62
   155
370
    18
100
AcDbCircle
 10
545.1423189124037
 20
509.5906318719523
 30
0.0
 40
1.500000000000001
100
AcDbArc
 50
0.9999999999999003
 51
90.0
1001
QCAD
1000
reversed:1
  0
ARC
  5
F8
330
B6B
100
AcDbEntity
  8
100
  6
Continuous
 62
   155
370
    18
100
AcDbCircle
 10
650.0923314286305
 20
509.5906318719523
 30
0.0
 40
1.500000000000001
100
AcDbArc
 50
90.0
 51
178.9999999999997
1001
QCAD
1000
reversed:1
  0
ARC
  5
F9
330
B6B
100
AcDbEntity
  8
100
  6
Continuous
 62
   155
370
    18
100
AcDbCircle
 10
658.6173251705171
 20
509.5906318719523
 30
0.0
 40
1.500000000000001
100
AcDbArc
 50
0.0
 51
90.0
  0
ARC
  5
FA
330
B6B
100
AcDbEntity
  8
100
  6
Continuous
 62
   155
370
    18
100
AcDbCircle
 10
700.0211224990153
 20
385.1325055841583
 30
0.0
 40
0.7751346644761731
100
AcDbArc
 50
180.000000000001
 51
0.0
  0
ARC
  5
FB
330
B6B
100
AcDbEntity
  8
100
  6
Continuous
 62
   155
370
    18
100
AcDbCircle
 10
708.0211224990153
 20
385.1325055841583
 30
0.0
 40
1.0
100
AcDbArc
 50
180.0000000000008
 51
0.0
  0
ARC
  5
FC
330
B6B
100
AcDbEntity
  8
100
  6
Continuous
 62
   155
370
    18
100
AcDbCircle
 10
716.1211224990152
 20
375.4075118422716
 30
0.0
 40
1.500000000000001
100
AcDbArc
 50
271.0000000000002
 51
0.0
1001
QCAD
1000
reversed:1
  0
ARC
  5
FD
330
B6B
100
AcDbEntity
  8
100
  6
Continuous
 62
   155
370
    18
100
AcDbCircle
 10
700.0211224990153
 20
451.7325055841583
 30
0.0
 40
0.7751346644761731
100
AcDbArc
 50
0.0
 51
179.999999999999
  0
ARC
  5
FE
330
B6B
100
AcDbEntity
  8
100
  6
Continuous
 62
   155
370
    18
100
AcDbCircle
 10
704.0211224990153
 20
415.8325055841582
 30
0.0
 40
0.7751346644761734
100
AcDbArc
 50
0.0
 51
180.0
  0
ARC
  5
FF
330
B6B
100
AcDbEntity
  8
100
  6
Continuous
 62
   155
370
    18
100
AcDbCircle
 10
700.0211224990153
 20
415.8325055841582
 30
0.0
 40
0.7751346644761731
100
AcDbArc
 50
0.0
 51
180.0
  0
ARC
  5
100
330
B6B
100
AcDbEntity
  8
100
  6
Continuous
 62
   155
370
    18
100
AcDbCircle
 10
700.0211224990153
 20
421.0325055841582
 30
0.0
 40
0.7751346644761731
100
AcDbArc
 50
180.0
 51
0.0
  0
ARC
  5
101
330
B6B
100
AcDbEntity
  8
100
  6
Continuous
 62
   155
370
    18
100
AcDbCircle
 10
708.0211224990153
 20
421.0325055841582
 30
0.0
 40
0.7751346644761737
100
AcDbArc
 50
180.0
 51
0.0
  0
ARC
  5
102
330
B6B
100
AcDbEntity
  8
100
  6
Continuous
 62
   155
370
    18
100
AcDbCircle
 10
708.0211224990153
 20
451.7325055841583
 30
0.0
 40
1.0
100
AcDbArc
 50
0.0
 51
179.9999999999992
  0
ARC
  5
103
330
B6B
100
AcDbEntity
  8
100
  6
Continuous
 62
   155
370
    18
100
AcDbCircle
 10
700.0211224990153
 20
415.8325055841582
 30
0.0
 40
1.0
100
AcDbArc
 50
0.0
 51
179.9999999999984
  0
ARC
  5
104
330
B6B
100
AcDbEntity
  8
100
  6
Continuous
 62
   155
370
    18
100
AcDbCircle
 10
709.0211224990153
 20
453.4325055841583
 30
0.0
 40
3.070530792283257
100
AcDbArc
 50
0.0
 51
90.0
  0
ARC
  5
105
330
B6B
100
AcDbEntity
  8
100
  6
Continuous
 62
   155
370
    18
100
AcDbCircle
 10
704.0211224990153
 20
451.7325055841583
 30
0.0
 40
1.0
100
AcDbArc
 50
0.0
 51
179.9999999999992
  0
ARC
  5
106
330
B6B
100
AcDbEntity
  8
100
  6
Continuous
 62
   155
370
    18
100
AcDbCircle
 10
708.0211224990153
 20
421.0325055841582
 30
0.0
 40
1.0
100
AcDbArc
 50
180.0
 51
0.0
  0
ARC
  5
107
330
B6B
100
AcDbEntity
  8
100
  6
Continuous
 62
   155
370
    18
100
AcDbCircle
 10
699.0211224990152
 20
453.4325055841582
 30
0.0
 40
3.000000000000004
100
AcDbArc
 50
90.0
 51
180.0
  0
ARC
  5
108
330
B6B
100
AcDbEntity
  8
100
  6
Continuous
 62
   155
370
    18
100
AcDbCircle
 10
704.0211224990153
 20
421.0325055841582
 30
0.0
 40
0.7751346644761734
100
AcDbArc
 50
180.0
 51
0.0
  0
ARC
  5
109
330
B6B
100
AcDbEntity
  8
100
  6
Continuous
 62
   155
370
    18
100
AcDbCircle
 10
699.0211224990153
 20
383.4325055841582
 30
0.0
 40
3.000000000000004
100
AcDbArc
 50
180.0
 51
270.0
  0
ARC
  5
10A
330
B6B
100
AcDbEntity
  8
100
  6
Continuous
 62
   155
370
    18
100
AcDbCircle
 10
704.0211224990153
 20
421.0325055841582
 30
0.0
 40
1.0
100
AcDbArc
 50
180.0
 51
0.0
  0
ARC
  5
10B
330
B6B
100
AcDbEntity
  8
100
  6
Continuous
 62
   155
370
    18
100
AcDbCircle
 10
704.0211224990153
 20
415.8325055841582
 30
0.0
 40
1.0
100
AcDbArc
 50
0.0
 51
179.9999999999984
  0
ARC
  5
10C
330
B6B
100
AcDbEntity
  8
100
  6
Continuous
 62
   155
370
    18
100
AcDbCircle
 10
704.0211224990153
 20
385.1325055841583
 30
0.0
 40
1.0
100
AcDbArc
 50
180.0000000000008
 51
0.0
  0
ARC
  5
10D
330
B6B
100
AcDbEntity
  8
100
  6
Continuous
 62
   155
370
    18
100
AcDbCircle
 10
708.0211224990153
 20
415.8325055841582
 30
0.0
 40
0.7751346644761737
100
AcDbArc
 50
0.0
 51
180.0
  0
ARC
  5
10E
330
B6B
100
AcDbEntity
  8
100
  6
Continuous
 62
   155
370
    18
100
AcDbCircle
 10
700.0211224990153
 20
385.1325055841583
 30
0.0
 40
1.0
100
AcDbArc
 50
180.0000000000008
 51
0.0
  0
ARC
  5
10F
330
B6B
100
AcDbEntity
  8
100
  6
Continuous
 62
   155
370
    18
100
AcDbCircle
 10
716.1211224990152
 20
461.4574993260449
 30
0.0
 40
1.500000000000001
100
AcDbArc
 50
0.0
 51
88.99999999999991
  0
ARC
  5
110
330
B6B
100
AcDbEntity
  8
100
  6
Continuous
 62
   155
370
    18
100
AcDbCircle
 10
699.0211224990153
 20
383.4325055841582
 30
0.0
 40
3.070530792283262
100
AcDbArc
 50
180.0
 51
270.0
  0
ARC
  5
111
330
B6B
100
AcDbEntity
  8
100
  6
Continuous
 62
   155
370
    18
100
AcDbCircle
 10
709.0211224990153
 20
453.4325055841583
 30
0.0
 40
3.000000000000004
100
AcDbArc
 50
0.0
 51
90.0
  0
ARC
  5
112
330
B6B
100
AcDbEntity
  8
100
  6
Continuous
 62
   155
370
    18
100
AcDbCircle
 10
700.0211224990153
 20
451.7325055841583
 30
0.0
 40
1.0
100
AcDbArc
 50
0.0
 51
179.9999999999992
  0
ARC
  5
113
330
B6B
100
AcDbEntity
  8
100
  6
Continuous
 62
   155
370
    18
100
AcDbCircle
 10
700.0211224990153
 20
421.0325055841582
 30
0.0
 40
1.0
100
AcDbArc
 50
180.0
 51
0.0
  0
ARC
  5
114
330
B6B
100
AcDbEntity
  8
100
  6
Continuous
 62
   155
370
    18
100
AcDbCircle
 10
709.0211224990153
 20
383.4325055841582
 30
0.0
 40
3.000000000000003
100
AcDbArc
 50
270.0
 51
0.0
  0
ARC
  5
115
330
B6B
100
AcDbEntity
  8
100
  6
Continuous
 62
   155
370
    18
100
AcDbCircle
 10
708.0211224990153
 20
415.8325055841582
 30
0.0
 40
1.0
100
AcDbArc
 50
0.0
 51
179.9999999999984
  0
ARC
  5
116
330
B6B
100
AcDbEntity
  8
100
  6
Continuous
 62
   155
370
    18
100
AcDbCircle
 10
699.0211224990153
 20
453.4325055841583
 30
0.0
 40
3.070530792283257
100
AcDbArc
 50
90.0
 51
180.0
  0
ARC
  5
117
330
B6B
100
AcDbEntity
  8
100
  6
Continuous
 62
   155
370
    18
100
AcDbCircle
 10
709.0211224990153
 20
383.4325055841582
 30
0.0
 40
3.070530792283262
100
AcDbArc
 50
270.0
 51
0.0
  0
ELLIPSE
  5
118
330
B6B
100
AcDbEntity
  8
100
  6
Continuous
 62
   155
370
    18
100
AcDbEllipse
 10
545.589168574566
 20
461.9043489882073
 30
-0.0000000000000253
 11
1.060983283754354
 21
1.060983283754354
 31
0.0
210
0.0
220
0.0
230
1.0
 40
0.9996954598818875
 41
5.497939437029845
 42
7.068431177329327
1001
QCAD
1000
reversed:1
  0
ELLIPSE
  5
119
330
B6B
100
AcDbEntity
  8
100
  6
Continuous
 62
   155
370
    18
100
AcDbEllipse
 10
658.6173251705171
 20
461.9043489882073
 30
-0.0000000000000002
 11
0.0
 21
1.500228492065862
 31
0.0
210
0.0
220
0.0
230
1.0
 40
0.9998476951563913
 41
4.71238898038469
 42
6.283185307179586
  0
ELLIPSE
  5
11A
330
B6B
100
AcDbEntity
  8
100
  6
Continuous
 62
   155
370
    18
100
AcDbEllipse
 10
536.6173251705171
 20
461.9043489882073
 30
-0.0000000000001465
 11
0.0
 21
1.500228492065844
 31
0.0
210
0.0
220
0.0
230
1.0
 40
0.9998476951563913
 41
0.0
 42
1.570796326794897
1001
QCAD
1000
reversed:1
  0
ELLIPSE
  5
11B
330
B6B
100
AcDbEntity
  8
100
  6
Continuous
 62
   155
370
    18
100
AcDbEllipse
 10
536.6173251705171
 20
374.9606621801092
 30
-0.0000000000000273
 11
0.0
 21
-1.500228492065862
 31
0.0
210
0.0
220
0.0
230
1.0
 40
0.9998476951563913
 41
4.71238898038469
 42
6.283185307179586
  0
ELLIPSE
  5
11C
330
B6B
100
AcDbEntity
  8
100
  6
Continuous
 62
   155
370
    18
100
AcDbEllipse
 10
545.5891685745662
 20
374.9606621801094
 30
-0.0000000000000253
 11
1.060983283754354
 21
-1.060983283754354
 31
0.0
210
0.0
220
0.0
230
1.0
 40
0.9996954598818875
 41
5.497939437029466
 42
7.068431177329328
1001
QCAD
1000
reversed:1
  0
ELLIPSE
  5
11D
330
B6B
100
AcDbEntity
  8
100
  6
Continuous
 62
   155
370
    18
100
AcDbEllipse
 10
658.6173251705171
 20
374.9606621801092
 30
-0.0000000000000002
 11
0.0
 21
-1.500228492065862
 31
0.0
210
0.0
220
0.0
230
1.0
 40
0.9998476951563913
 41
0.0
 42
1.570796326794897
  0
ELLIPSE
  5
11E
330
B6B
100
AcDbEntity
  8
100
  6
Continuous
 62
   155
370
    18
100
AcDbEllipse
 10
649.6454817664683
 20
374.9606621801094
 30
-0.0000000000000022
 11
-1.060983283754372
 21
-1.060983283754372
 31
0.0
210
0.0
220
0.0
230
1.0
 40
0.9996954598818872
 41
5.497939437029845
 42
7.068431177329403
  0
ELLIPSE
  5
11F
330
B6B
100
AcDbEntity
  8
100
  6
Continuous
 62
   155
370
    18
100
AcDbEllipse
 10
649.6454817664683
 20
461.9043489882074
 30
-0.0000000000000022
 11
-1.060983283754354
 21
1.060983283754354
 31
0.0
210
0.0
220
0.0
230
1.0
 40
0.9996954598818875
 41
5.497939437029845
 42
7.068431177329328
1001
QCAD
1000
reversed:1
  0
MTEXT
  5
120
330
B6B
100
AcDbEntity
  8
Top
  6
Continuous
 62
     5
370
    13
100
AcDbMText
 10
628.1418764820414
 20
526.9071633538665
 30
0.0
 40
10.0
 41
0.0
 46
0.0
 71
     7
 72
     1
  1
\W0.6945;13.5
  7
textstyle3
 11
1.615544574432587E-15
 21
1.0
 31
0.0
 73
     1
 44
0.6325301204819278
  0
LINE
  5
124
330
B6B
100
AcDbEntity
  8
100
  6
Continuous
 62
   156
370
    18
100
AcDbLine
 10
627.9127099345841
 20
496.0906318719523
 30
0.0
 11
627.2955655021086
 21
499.5906296050542
 31
0.0
  0
LINE
  5
125
330
B6B
100
AcDbEntity
  8
100
  6
Continuous
 62
   156
370
    18
100
AcDbLine
 10
627.2955655021086
 20
499.5906296050542
 30
0.0
 11
628.5298543670596
 21
499.5906341388504
 31
0.0
  0
LINE
  5
126
330
B6B
100
AcDbEntity
  8
100
  6
Continuous
 62
   156
370
    18
100
AcDbLine
 10
628.5298543670596
 20
499.5906341388504
 30
0.0
 11
627.9127099345841
 21
496.0906318719523
 31
0.0
  0
HATCH
  5
127
330
B6B
100
AcDbEntity
  8
Top
  6
Continuous
 62
   156
440
 33554687
370
    13
100
AcDbHatch
 10
0.0
 20
0.0
 30
0.0
210
0.0
220
0.0
230
1.0
  2
ANSI31
 70
     0
 71
     0
 91
        1
 92
        0
 93
        3
 72
     1
 10
627.9127099345841
 20
496.0906318719523
 11
627.2955655021086
 21
499.5906296050542
 72
     1
 10
627.2955655021086
 20
499.5906296050542
 11
628.5298543670596
 21
499.5906341388504
 72
     1
 10
628.5298543670596
 20
499.5906341388504
 11
627.9127099345841
 21
496.0906318719523
 97
        0
 75
     0
 76
     0
 52
-0.0000000000001207
 41
0.02
 77
     0
 78
     1
 53
44.99999999999988
 43
0.0
 44
0.0
 45
-0.0449012806053457
 46
0.0449012806053459
 79
     0
 98
        0
1001
ACAD
1010
0.0
1020
0.0
1030
0.0
  0
LINE
  5
128
330
B6B
100
AcDbEntity
  8
100
  6
Continuous
 62
   156
370
    18
100
AcDbLine
 10
627.9127099345841
 20
509.5906318719523
 30
0.0
 11
628.5298543670596
 21
506.0906341388504
 31
0.0
  0
LINE
  5
129
330
B6B
100
AcDbEntity
  8
100
  6
Continuous
 62
   156
370
    18
100
AcDbLine
 10
628.5298543670596
 20
506.0906341388504
 30
0.0
 11
627.2955655021086
 21
506.0906296050542
 31
0.0
  0
LINE
  5
12A
330
B6B
100
AcDbEntity
  8
100
  6
Continuous
 62
   156
370
    18
100
AcDbLine
 10
627.2955655021086
 20
506.0906296050542
 30
0.0
 11
627.9127099345841
 21
509.5906318719523
 31
0.0
  0
HATCH
  5
12B
330
B6B
100
AcDbEntity
  8
Top
  6
Continuous
 62
   156
440
 33554687
370
    13
100
AcDbHatch
 10
0.0
 20
0.0
 30
0.0
210
0.0
220
0.0
230
1.0
  2
ANSI31
 70
     0
 71
     0
 91
        1
 92
        0
 93
        3
 72
     1
 10
627.9127099345841
 20
509.5906318719523
 11
628.5298543670596
 21
506.0906341388504
 72
     1
 10
628.5298543670596
 20
506.0906341388504
 11
627.2955655021086
 21
506.0906296050542
 72
     1
 10
627.2955655021086
 20
506.0906296050542
 11
627.9127099345841
 21
509.5906318719523
 97
        0
 75
     0
 76
     0
 52
-0.0000000000001278
 41
0.02
 77
     0
 78
     1
 53
44.99999999999987
 43
0.0
 44
0.0
 45
-0.0449012806053457
 46
0.0449012806053459
 79
     0
 98
        0
1001
ACAD
1010
0.0
1020
0.0
1030
0.0
  0
DIMENSION
  5
135
330
B6B
100
AcDbEntity
  8
100
  6
Continuous
 62
   156
370
    13
100
AcDbDimension
280
     0
 10
547.0893970666319
 20
369.3583869873922
 30
0.0
 11
597.6173251705172
 21
369.3583869873922
 31
0.0
 70
   160
  1
\C5;101.1
 71
     5
 42
-1.0
 73
     0
 74
     0
 75
     0
  3
QCADDimStyle
100
AcDbAlignedDimension
 13
547.0893970666319
 23
374.960205230778
 33
0.0
 14
648.1452532744023
 24
374.960205230778
 34
0.0
100
AcDbRotatedDimension
  0
DIMENSION
  5
13F
330
B6B
100
AcDbEntity
  8
100
  6
Continuous
 62
   156
370
    13
100
AcDbDimension
280
     0
 10
688.9211224990153
 20
471.3758839355218
 30
0.0
 11
703.2711224990152
 21
471.3758839355218
 31
0.0
 70
   160
  1
\C5;28.7
 71
     5
 42
-1.0
 73
     0
 74
     0
 75
     0
  3
QCADDimStyle
100
AcDbAlignedDimension
 13
688.9211224990153
 23
462.2325055841583
 33
0.0
 14
717.6211224990153
 24
461.4574993260449
 34
0.0
100
AcDbRotatedDimension
  0
DIMENSION
  5
149
330
B6B
100
AcDbEntity
  8
100
  6
Continuous
 62
   156
370
    13
100
AcDbDimension
280
     0
 10
679.1961292555617
 20
511.0906318719523
 30
0.0
 11
679.1961292555617
 21
497.5406318719523
 31
0.0
 70
   160
  1
\C5;27.1
 71
     5
 42
-1.0
 73
     0
 74
     0
 75
     0
  3
QCADDimStyle
100
AcDbAlignedDimension
 13
654.3558282995738
 23
511.0906318719523
 33
0.0
 14
654.131174993827
 24
483.9906318719522
 34
0.0
 50
90.0
100
AcDbRotatedDimension
  0
DIMENSION
  5
15D
330
B6B
100
AcDbEntity
  8
100
  6
Continuous
 62
   156
370
    13
100
AcDbDimension
280
     0
 10
524.7228122475885
 20
453.1933864274461
 30
0.0
 11
524.7228122475885
 21
418.4325055841583
 31
0.0
 70
   160
  1
\C5;69.5
 71
     5
 42
-1.0
 73
     0
 74
     0
 75
     0
  3
QCADDimStyle
100
AcDbAlignedDimension
 13
546.8781907810005
 23
453.1933864274461
 33
0.0
 14
546.8781907810005
 24
383.6716247408705
 34
0.0
 50
90.0
100
AcDbRotatedDimension
  0
DIMENSION
  5
1DA
330
B6B
100
AcDbEntity
  8
MiniCADViewLayer
 62
     3
370
    18
100
AcDbDimension
280
     0
 10
540.1173251705162
 20
458.5501320636699
 30
0.0
 11
597.617325170518
 21
458.5501320636699
 31
0.0
 70
    32
  1
115.00
 71
     5
 42
-1.0
 73
     0
 74
     0
 75
     0
  3
QCADDimStyle
100
AcDbAlignedDimension
 13
540.1173251705162
 23
458.4325055841583
 33
0.0000000000000266
 14
655.1173251705198
 24
458.4325055841583
 34
0.0000000000000011
100
AcDbRotatedDimension
  0
DIMENSION
  5
1E9
330
B6B
100
AcDbEntity
  8
MiniCADViewLayer
 62
     3
370
    18
100
AcDbDimension
280
     0
 10
664.974449812212
 20
378.4325055841582
 30
0.0
 11
664.974449812212
 21
418.4913188239141
 31
0.0
 70
    32
  1
80.12
 71
     5
 42
-1.0
 73
     0
 74
     0
 75
     0
  3
QCADDimStyle
100
AcDbAlignedDimension
 13
655.11732517052
 23
378.4325055841582
 33
0.0000000000000011
 14
655.1173251705198
 24
458.5501320636699
 34
0.0
 50
90.0
100
AcDbRotatedDimension
  0
DIMENSION
  5
251
330
B6B
100
AcDbEntity
  8
MiniCADViewLayer
 62
     3
370
    18
100
AcDbDimension
280
     0
 10
594.1173251705171
 20
432.8944238184268
 30
0.0000000000000003
 11
594.1173251705171
 21
432.8944238184268
 31
0.0000000000000003
 70
    32
  1
94.00
 71
     5
 42
-1.0
 73
     0
 74
     0
 75
     0
  3
QCADDimStyle
100
AcDbAlignedDimension
 13
547.1173251705171
 23
432.8944238184268
 33
0.0000000000000002
 14
641.1173251705171
 24
432.8944238184268
 34
0.0000000000000006
 50
180.0
100
AcDbRotatedDimension
  0
DIMENSION
  5
25F
330
B6B
100
AcDbEntity
  8
MiniCADViewLayer
 62
     3
370
    18
100
AcDbDimension
280
     0
 10
598.240781736102
 20
418.4325055841583
 30
0.0000000000000002
 11
598.240781736102
 21
418.4325055841583
 31
0.0000000000000002
 70
    32
  1
62.00
 71
     5
 42
-1.0
 73
     0
 74
     0
 75
     0
  3
QCADDimStyle
100
AcDbAlignedDimension
 13
598.240781736102
 23
449.4325055841583
 33
0.0000000000000004
 14
598.240781736102
 24
387.4325055841583
 34
0.0000000000000004
 50
90.0
100
AcDbRotatedDimension
  0
DIMENSION
  5
30C
330
B6B
100
AcDbEntity
  8
PUB_DIM尺寸
  6
Continuous
 62
     3
 48
1.58362369337965
370
    18
100
AcDbDimension
280
     0
 10
535.1173251705171
 20
362.8533928131303
 30
0.0
 11
597.6173251705171
 21
362.8533928131303
 31
0.0
 70
    32
 71
     5
 42
-1.0
 73
     0
 74
     0
 75
     0
  3
QCADDimStyle
100
AcDbAlignedDimension
 13
535.1173251705171
 23
375.4075118422717
 33
-0.0000000000000007
 14
660.1173251705171
 24
375.4075118422716
 34
0.0
 50
180.0
100
AcDbRotatedDimension
  0
LINE
  5
747
330
B6B
100
AcDbEntity
  8
1
  6
Continuous
 62
     8
370
    70
100
AcDbLine
 10
875.1145828675818
 20
608.2856209124335
 30
0.0
 11
771.2610708675819
 21
608.2856209124335
 31
0.0
  0
LINE
  5
748
330
B6B
100
AcDbEntity
  8
1
  6
Continuous
 62
     8
370
    70
100
AcDbLine
 10
771.2610708675819
 20
582.5206209124335
 30
0.0
 11
875.1145828675818
 21
582.5206209124335
 31
0.0
  0
LINE
  5
749
330
B6B
100
AcDbEntity
  8
1
  6
Continuous
 62
   155
370
    70
100
AcDbLine
 10
805.0978268675818
 20
369.1966589124335
 30
0.0
 11
841.2778268675819
 21
369.1966589124335
 31
0.0
  0
LINE
  5
74A
330
B6B
100
AcDbEntity
  8
1
  6
Continuous
 62
   155
370
    70
100
AcDbLine
 10
805.0978268675818
 20
514.4512489124335
 30
0.0
 11
841.2778268675819
 21
514.4512489124335
 31
0.0
  0
LINE
  5
74B
330
B6B
100
AcDbEntity
  8
1
  6
Continuous
 62
   155
370
    70
100
AcDbLine
 10
805.0475398675819
 20
504.9291159124335
 30
0.0
 11
841.3281138675818
 21
504.9291159124335
 31
0.0
  0
LINE
  5
74C
330
B6B
100
AcDbEntity
  8
1
  6
Continuous
 62
   155
370
    70
100
AcDbLine
 10
780.4250768675819
 20
505.2280649124335
 30
0.0
 11
865.9505768675818
 21
505.2280649124335
 31
0.0
  0
LINE
  5
74D
330
B6B
100
AcDbEntity
  8
1
  6
Continuous
 62
   155
370
    70
100
AcDbLine
 10
780.4250768675819
 20
512.2493289124334
 30
0.0
 11
865.9505768675818
 21
512.2493289124334
 31
0.0
  0
LINE
  5
74E
330
B6B
100
AcDbEntity
  8
1
  6
Continuous
 62
   155
370
    70
100
AcDbLine
 10
805.0978268675818
 20
512.5482779124335
 30
0.0
 11
841.2778268675819
 21
512.5482779124335
 31
0.0
  0
LINE
  5
74F
330
B6B
100
AcDbEntity
  8
1
  6
Continuous
 62
   155
370
    70
100
AcDbLine
 10
780.4250768675819
 20
378.4198429124335
 30
0.0
 11
865.9505768675818
 21
378.4198429124335
 31
0.0
  0
LINE
  5
750
330
B6B
100
AcDbEntity
  8
1
  6
Continuous
 62
   155
370
    70
100
AcDbLine
 10
805.0475398675819
 20
378.7187919124335
 30
0.0
 11
841.3281138675818
 21
378.7187919124335
 31
0.0
  0
LINE
  5
751
330
B6B
100
AcDbEntity
  8
1
  6
Continuous
 62
   155
370
    70
100
AcDbLine
 10
805.0978268675818
 20
371.0996299124334
 30
0.0
 11
841.2778268675819
 21
371.0996299124334
 31
0.0
  0
LINE
  5
752
330
B6B
100
AcDbEntity
  8
1
  6
Continuous
 62
   155
370
    70
100
AcDbLine
 10
780.4250768675819
 20
371.3985789124335
 30
0.0
 11
865.9505768675818
 21
371.3985789124335
 31
0.0
  0
LINE
  5
753
330
B6B
100
AcDbEntity
  8
1
  6
Continuous
 62
   155
370
    70
100
AcDbLine
 10
778.7249738675819
 20
601.9356209124335
 30
0.0
 11
867.6506798675819
 21
601.9356209124335
 31
0.0
  0
LINE
  5
754
330
B6B
100
AcDbEntity
  8
1
  6
Continuous
 62
   155
370
    70
100
AcDbLine
 10
866.6813388675819
 20
598.4181209124334
 30
0.0
 11
779.6943148675819
 21
598.4181209124334
 31
0.0
  0
LINE
  5
755
330
B6B
100
AcDbEntity
  8
1
  6
Continuous
 62
   155
370
    70
100
AcDbLine
 10
805.0978268675818
 20
592.7901209124335
 30
0.0
 11
841.2778268675819
 21
592.7901209124335
 31
0.0
  0
LINE
  5
756
330
B6B
100
AcDbEntity
  8
1
  6
Continuous
 62
   155
370
    70
100
AcDbLine
 10
807.8578618675818
 20
455.9710739124334
 30
0.0
 11
807.8578618675818
 21
491.9214589124335
 31
0.0
  0
LINE
  5
757
330
B6B
100
AcDbEntity
  8
1
  6
Continuous
 62
   155
370
    70
100
AcDbLine
 10
806.9366118675819
 20
491.4254779124335
 30
0.0
 11
806.9366118675819
 21
456.4670549124335
 31
0.0
  0
LINE
  5
758
330
B6B
100
AcDbEntity
  8
1
  6
Continuous
 62
   155
370
    70
100
AcDbLine
 10
803.0878268675818
 20
458.3562039124334
 30
0.0
 11
803.0878268675818
 21
502.7772039124335
 31
0.0
  0
LINE
  5
759
330
B6B
100
AcDbEntity
  8
1
  6
Continuous
 62
   155
370
    70
100
AcDbLine
 10
777.6110708675818
 20
512.4855299124335
 30
0.0
 11
777.6110708675818
 21
371.1623779124334
 31
0.0
  0
LINE
  5
75A
330
B6B
100
AcDbEntity
  8
1
  6
Continuous
 62
   155
370
    70
100
AcDbLine
 10
806.9067898675819
 20
491.3956559124335
 30
0.0
 11
806.9067898675819
 21
456.4968769124335
 31
0.0
  0
LINE
  5
75B
330
B6B
100
AcDbEntity
  8
1
  6
Continuous
 62
   155
370
    70
100
AcDbLine
 10
803.3619048675819
 20
458.0821259124335
 30
0.0
 11
803.3619048675819
 21
503.0512819124335
 31
0.0
  0
LINE
  5
75C
330
B6B
100
AcDbEntity
  8
1
  6
Continuous
 62
   155
370
    70
100
AcDbLine
 10
779.5796648675819
 20
458.0821259124335
 30
0.0
 11
779.5796648675819
 21
503.0512819124335
 31
0.0
  0
LINE
  5
75D
330
B6B
100
AcDbEntity
  8
1
  6
Continuous
 62
   155
370
    70
100
AcDbLine
 10
779.9225768675818
 20
502.7772039124335
 30
0.0
 11
779.9225768675818
 21
458.3562039124334
 31
0.0
  0
LINE
  5
75E
330
B6B
100
AcDbEntity
  8
1
  6
Continuous
 62
   155
370
    70
100
AcDbLine
 10
807.8578618675818
 20
427.6768339124335
 30
0.0
 11
807.8578618675818
 21
391.7264489124335
 31
0.0
  0
LINE
  5
75F
330
B6B
100
AcDbEntity
  8
1
  6
Continuous
 62
   155
370
    70
100
AcDbLine
 10
806.9366118675819
 20
392.2224299124335
 30
0.0
 11
806.9366118675819
 21
427.1808529124335
 31
0.0
  0
LINE
  5
760
330
B6B
100
AcDbEntity
  8
1
  6
Continuous
 62
   155
370
    70
100
AcDbLine
 10
803.0878268675818
 20
425.2917039124335
 30
0.0
 11
803.0878268675818
 21
380.8707039124334
 31
0.0
  0
LINE
  5
761
330
B6B
100
AcDbEntity
  8
1
  6
Continuous
 62
   155
370
    70
100
AcDbLine
 10
779.9225768675818
 20
380.8707039124334
 30
0.0
 11
779.9225768675818
 21
425.2917039124335
 31
0.0
  0
LINE
  5
762
330
B6B
100
AcDbEntity
  8
1
  6
Continuous
 62
   155
370
    70
100
AcDbLine
 10
806.9067898675819
 20
392.2522519124335
 30
0.0
 11
806.9067898675819
 21
427.1510309124334
 31
0.0
  0
LINE
  5
763
330
B6B
100
AcDbEntity
  8
1
  6
Continuous
 62
   155
370
    70
100
AcDbLine
 10
803.4307388675819
 20
425.6346159124334
 30
0.0
 11
803.4307388675819
 21
380.5277919124335
 31
0.0
  0
LINE
  5
764
330
B6B
100
AcDbEntity
  8
1
  6
Continuous
 62
   155
370
    70
100
AcDbLine
 10
779.5796648675819
 20
425.6346159124334
 30
0.0
 11
779.5796648675819
 21
380.5277919124335
 31
0.0
  0
LINE
  5
765
330
B6B
100
AcDbEntity
  8
1
  6
Continuous
 62
   155
370
    70
100
AcDbLine
 10
779.9225768675818
 20
380.8707039124334
 30
0.0
 11
803.0878268675818
 21
380.8707039124334
 31
0.0
  0
LINE
  5
766
330
B6B
100
AcDbEntity
  8
1
  6
Continuous
 62
   155
370
    70
100
AcDbLine
 10
804.8924148675818
 20
369.1624539124335
 30
0.0
 11
779.6109948675819
 21
369.1624539124335
 31
0.0
  0
LINE
  5
767
330
B6B
100
AcDbEntity
  8
1
  6
Continuous
 62
   155
370
    70
100
AcDbLine
 10
779.7718268675818
 20
370.7567179124335
 30
0.0
 11
804.8924148675818
 21
370.7567179124335
 31
0.0
  0
LINE
  5
768
330
B6B
100
AcDbEntity
  8
1
  6
Continuous
 62
   155
370
    70
100
AcDbLine
 10
779.7718268675818
 20
379.0617039124335
 30
0.0
 11
804.8967898675819
 21
379.0617039124335
 31
0.0
  0
LINE
  5
769
330
B6B
100
AcDbEntity
  8
1
  6
Continuous
 62
   155
370
    70
100
AcDbLine
 10
779.5796648675819
 20
380.5277919124335
 30
0.0
 11
803.4307388675819
 21
380.5277919124335
 31
0.0
  0
CIRCLE
  5
76A
330
B6B
100
AcDbEntity
  8
1
  6
Continuous
 62
   155
370
    70
100
AcDbCircle
 10
788.0882018675819
 20
373.9864539124335
 30
0.0
 40
2.26125
  0
LINE
  5
76B
330
B6B
100
AcDbEntity
  8
1
  6
CENTER
 62
    18
370
    35
100
AcDbLine
 10
780.0882018675819
 20
373.9864539124335
 30
0.0
 11
796.0882018675819
 21
373.9864539124335
 31
0.0
  0
LINE
  5
76C
330
B6B
100
AcDbEntity
  8
1
  6
CENTER
 62
    18
370
    35
100
AcDbLine
 10
774.9878268675818
 20
384.0364539124334
 30
0.0
 11
790.9878268675818
 21
384.0364539124334
 31
0.0
  0
LINE
  5
76D
330
B6B
100
AcDbEntity
  8
1
  6
Continuous
 62
   155
370
    70
100
AcDbLine
 10
779.5796648675819
 20
380.5277919124335
 30
0.0
 11
779.9225768675818
 21
380.8707039124334
 31
0.0
  0
LINE
  5
76E
330
B6B
100
AcDbEntity
  8
1
  6
Continuous
 62
   155
370
    70
100
AcDbLine
 10
780.4250768675819
 20
378.4198429124335
 30
0.0
 11
780.4250768675819
 21
371.3985789124335
 31
0.0
  0
LINE
  5
76F
330
B6B
100
AcDbEntity
  8
1
  6
Continuous
 62
   155
370
    70
100
AcDbLine
 10
779.7718268675818
 20
379.0617039124335
 30
0.0
 11
780.4250768675819
 21
378.4198429124335
 31
0.0
  0
LINE
  5
770
330
B6B
100
AcDbEntity
  8
1
  6
Continuous
 62
   155
370
    70
100
AcDbLine
 10
779.7718268675818
 20
370.7567179124335
 30
0.0
 11
780.4250768675819
 21
371.3985789124335
 31
0.0
  0
LINE
  5
771
330
B6B
100
AcDbEntity
  8
1
  6
Continuous
 62
   155
370
    70
100
AcDbLine
 10
779.7718268675818
 20
379.0617039124335
 30
0.0
 11
779.7718268675818
 21
370.7567179124335
 31
0.0
  0
CIRCLE
  5
772
330
B6B
100
AcDbEntity
  8
1
  6
Continuous
 62
   155
370
    70
100
AcDbCircle
 10
782.9878268675818
 20
384.0364539124334
 30
0.0
 40
1.3065
  0
ELLIPSE
  5
773
330
B6B
100
AcDbEntity
  8
1
  6
Continuous
 62
   155
370
    70
100
AcDbEllipse
 10
779.6111468675819
 20
371.1625299124335
 30
0.0
 11
-1.414321262261757
 21
-1.414321262261799
 31
0.0
210
0.0
220
0.0
230
1.0
 40
0.999924
 41
5.497825219993158
 42
7.06854539436608
  0
LINE
  5
774
330
B6B
100
AcDbEntity
  8
1
  6
CENTER
 62
    18
370
    35
100
AcDbLine
 10
782.9878268675818
 20
376.0364539124334
 30
0.0
 11
782.9878268675818
 21
392.0364539124334
 31
0.0
  0
LINE
  5
775
330
B6B
100
AcDbEntity
  8
1
  6
Continuous
 62
   155
370
    70
100
AcDbLine
 10
805.0475398675819
 20
390.7987569124335
 30
0.0
 11
806.9301698675819
 21
390.7987569124335
 31
0.0
  0
LINE
  5
776
330
B6B
100
AcDbEntity
  8
1
  6
Continuous
 62
   155
370
    70
100
AcDbLine
 10
806.4341878675818
 20
391.7200069124335
 30
0.0
 11
804.9625008675819
 21
391.7200069124335
 31
0.0
  0
LINE
  5
777
330
B6B
100
AcDbEntity
  8
1
  6
Continuous
 62
   155
370
    70
100
AcDbLine
 10
804.9625008675819
 20
391.7200069124335
 30
0.0
 11
804.8967898675819
 21
391.7498289124335
 31
0.0
  0
LINE
  5
778
330
B6B
100
AcDbEntity
  8
1
  6
Continuous
 62
   155
370
    70
100
AcDbLine
 10
805.0475398675819
 20
378.7187919124335
 30
0.0
 11
805.0475398675819
 21
390.7987569124335
 31
0.0
  0
LINE
  5
779
330
B6B
100
AcDbEntity
  8
1
  6
Continuous
 62
   155
370
    70
100
AcDbLine
 10
805.0475398675819
 20
390.7987569124335
 30
0.0
 11
804.9625008675819
 21
391.7200069124335
 31
0.0
  0
LINE
  5
77A
330
B6B
100
AcDbEntity
  8
1
  6
Continuous
 62
   155
370
    70
100
AcDbLine
 10
803.0878268675818
 20
380.8707039124334
 30
0.0
 11
803.4307388675819
 21
380.5277919124335
 31
0.0
  0
LINE
  5
77B
330
B6B
100
AcDbEntity
  8
1
  6
Continuous
 62
   155
370
    70
100
AcDbLine
 10
805.0475398675819
 20
378.7187919124335
 30
0.0
 11
804.8967898675819
 21
379.0617039124335
 31
0.0
  0
LINE
  5
77C
330
B6B
100
AcDbEntity
  8
1
  6
Continuous
 62
   155
370
    35
100
AcDbLine
 10
806.4341878675818
 20
391.7200069124335
 30
0.0
 11
806.4043658675819
 21
391.7498289124335
 31
0.0
  0
LINE
  5
77D
330
B6B
100
AcDbEntity
  8
1
  6
Continuous
 62
   155
370
    35
100
AcDbLine
 10
806.9067898675819
 20
392.2522519124335
 30
0.0
 11
806.9366118675819
 21
392.2224299124335
 31
0.0
  0
LINE
  5
77E
330
B6B
100
AcDbEntity
  8
1
  6
Continuous
 62
   155
370
    70
100
AcDbLine
 10
805.0978268675818
 20
371.0996299124334
 30
0.0
 11
804.8924148675818
 21
370.7567179124335
 31
0.0
  0
LINE
  5
77F
330
B6B
100
AcDbEntity
  8
1
  6
Continuous
 62
   155
370
    70
100
AcDbLine
 10
805.0978268675818
 20
369.1966589124335
 30
0.0
 11
804.8924148675818
 21
369.1624539124335
 31
0.0
  0
LINE
  5
780
330
B6B
100
AcDbEntity
  8
1
  6
Continuous
 62
   155
370
    70
100
AcDbLine
 10
805.0978268675818
 20
369.1966589124335
 30
0.0
 11
805.0978268675818
 21
371.0996299124334
 31
0.0
  0
LINE
  5
781
330
B6B
100
AcDbEntity
  8
1
  6
Continuous
 62
   155
370
    70
100
AcDbLine
 10
804.8924148675818
 20
369.1624539124335
 30
0.0
 11
804.8924148675818
 21
370.7567179124335
 31
0.0
  0
LINE
  5
782
330
B6B
100
AcDbEntity
  8
1
  6
Continuous
 62
   155
370
    70
100
AcDbLine
 10
804.8967898675819
 20
379.0617039124335
 30
0.0
 11
804.8967898675819
 21
391.7498289124335
 31
0.0
  0
LINE
  5
783
330
B6B
100
AcDbEntity
  8
1
  6
Continuous
 62
   155
370
    70
100
AcDbLine
 10
804.8967898675819
 20
391.7498289124335
 30
0.0
 11
806.4043658675819
 21
391.7498289124335
 31
0.0
  0
ELLIPSE
  5
784
330
B6B
100
AcDbEntity
  8
1
  6
Continuous
 62
   155
370
    70
100
AcDbEllipse
 10
806.7691118675818
 20
391.8875069124335
 30
0.0
 11
0.8248418409004695
 21
-0.8248418409004963
 31
0.0
210
0.0
220
0.0
230
1.0
 40
0.8615500000000001
 41
5.572024093066503
 42
6.994346521292226
  0
ELLIPSE
  5
785
330
B6B
100
AcDbEntity
  8
1
  6
Continuous
 62
   155
370
    70
100
AcDbEllipse
 10
806.4340348675819
 20
392.2225839124335
 30
0.0
 11
0.3554294000577088
 21
-0.3554294000577203
 31
0.0
210
0.0
220
0.0
230
1.0
 40
0.9996950000000001
 41
5.497939437029657
 42
7.068431177329633
  0
ELLIPSE
  5
786
330
B6B
100
AcDbEntity
  8
1
  6
Continuous
 62
   155
370
    70
100
AcDbEllipse
 10
806.4042128675819
 20
392.2524059124335
 30
0.0
 11
0.3554294000577088
 21
-0.3554294000577203
 31
0.0
210
0.0
220
0.0
230
1.0
 40
0.9996950000000001
 41
5.497939437029657
 42
7.068431177329633
  0
LINE
  5
787
330
B6B
100
AcDbEntity
  8
1
  6
CENTER
 62
    18
370
    35
100
AcDbLine
 10
788.0882018675819
 20
365.9864539124335
 30
0.0
 11
788.0882018675819
 21
381.9864539124335
 31
0.0
  0
LINE
  5
788
330
B6B
100
AcDbEntity
  8
1
  6
Continuous
 62
   155
370
    70
100
AcDbLine
 10
803.0878268675818
 20
427.1007039124335
 30
0.0
 11
779.9225768675818
 21
427.1007039124335
 31
0.0
  0
LINE
  5
789
330
B6B
100
AcDbEntity
  8
1
  6
Continuous
 62
   155
370
    70
100
AcDbLine
 10
803.0878268675818
 20
456.5472039124335
 30
0.0
 11
779.9225768675818
 21
456.5472039124335
 31
0.0
  0
LINE
  5
78A
330
B6B
100
AcDbEntity
  8
1
  6
Continuous
 62
   155
370
    70
100
AcDbLine
 10
803.0878268675818
 20
425.2917039124335
 30
0.0
 11
779.9225768675818
 21
425.2917039124335
 31
0.0
  0
LINE
  5
78B
330
B6B
100
AcDbEntity
  8
1
  6
Continuous
 62
   155
370
    70
100
AcDbLine
 10
803.4307388675819
 20
426.7577919124334
 30
0.0
 11
779.5796648675819
 21
426.7577919124334
 31
0.0
  0
LINE
  5
78C
330
B6B
100
AcDbEntity
  8
1
  6
Continuous
 62
   155
370
    70
100
AcDbLine
 10
803.4307388675819
 20
456.8901159124335
 30
0.0
 11
779.5796648675819
 21
456.8901159124335
 31
0.0
  0
LINE
  5
78D
330
B6B
100
AcDbEntity
  8
1
  6
Continuous
 62
   155
370
    70
100
AcDbLine
 10
803.4307388675819
 20
425.6346159124334
 30
0.0
 11
779.5796648675819
 21
425.6346159124334
 31
0.0
  0
LINE
  5
78E
330
B6B
100
AcDbEntity
  8
1
  6
Continuous
 62
   155
370
    70
100
AcDbLine
 10
803.0878268675818
 20
458.3562039124334
 30
0.0
 11
779.9225768675818
 21
458.3562039124334
 31
0.0
  0
LINE
  5
78F
330
B6B
100
AcDbEntity
  8
1
  6
Continuous
 62
   155
370
    70
100
AcDbLine
 10
803.3619048675819
 20
458.0821259124335
 30
0.0
 11
779.5796648675819
 21
458.0821259124335
 31
0.0
  0
LINE
  5
790
330
B6B
100
AcDbEntity
  8
1
  6
Continuous
 62
   155
370
    70
100
AcDbLine
 10
779.9225768675818
 20
456.5472039124335
 30
0.0
 11
779.5796648675819
 21
456.8901159124335
 31
0.0
  0
LINE
  5
791
330
B6B
100
AcDbEntity
  8
1
  6
Continuous
 62
   155
370
    70
100
AcDbLine
 10
779.9225768675818
 20
427.1007039124335
 30
0.0
 11
779.5796648675819
 21
426.7577919124334
 31
0.0
  0
LINE
  5
792
330
B6B
100
AcDbEntity
  8
1
  6
Continuous
 62
   155
370
    70
100
AcDbLine
 10
779.9225768675818
 20
456.5472039124335
 30
0.0
 11
779.9225768675818
 21
427.1007039124335
 31
0.0
  0
LINE
  5
793
330
B6B
100
AcDbEntity
  8
1
  6
Continuous
 62
   155
370
    70
100
AcDbLine
 10
779.9225768675818
 20
425.2917039124335
 30
0.0
 11
779.5796648675819
 21
425.6346159124334
 31
0.0
  0
LINE
  5
794
330
B6B
100
AcDbEntity
  8
1
  6
Continuous
 62
   155
370
    70
100
AcDbLine
 10
779.5796648675819
 20
426.7577919124334
 30
0.0
 11
779.5796648675819
 21
456.8901159124335
 31
0.0
  0
LINE
  5
795
330
B6B
100
AcDbEntity
  8
1
  6
Continuous
 62
   155
370
    70
100
AcDbLine
 10
779.9225768675818
 20
458.3562039124334
 30
0.0
 11
779.5796648675819
 21
458.0821259124335
 31
0.0
  0
LINE
  5
796
330
B6B
100
AcDbEntity
  8
1
  6
Continuous
 62
   155
370
    70
100
AcDbLine
 10
803.0878268675818
 20
427.1007039124335
 30
0.0
 11
803.0878268675818
 21
456.5472039124335
 31
0.0
  0
LINE
  5
797
330
B6B
100
AcDbEntity
  8
1
  6
Continuous
 62
   155
370
    70
100
AcDbLine
 10
805.0475398675819
 20
455.0433819124335
 30
0.0
 11
805.0475398675819
 21
428.6045259124335
 31
0.0
  0
LINE
  5
798
330
B6B
100
AcDbEntity
  8
1
  6
Continuous
 62
   155
370
    70
100
AcDbLine
 10
803.4307388675819
 20
426.7577919124334
 30
0.0
 11
803.4307388675819
 21
456.8901159124335
 31
0.0
  0
LINE
  5
799
330
B6B
100
AcDbEntity
  8
1
  6
Continuous
 62
   155
370
    70
100
AcDbLine
 10
804.8967898675819
 20
455.9944539124335
 30
0.0
 11
804.8967898675819
 21
427.6534539124335
 31
0.0
  0
LINE
  5
79A
330
B6B
100
AcDbEntity
  8
1
  6
Continuous
 62
   155
370
    70
100
AcDbLine
 10
805.0475398675819
 20
428.6045259124335
 30
0.0
 11
806.9301698675819
 21
428.6045259124335
 31
0.0
  0
LINE
  5
79B
330
B6B
100
AcDbEntity
  8
1
  6
Continuous
 62
   155
370
    70
100
AcDbLine
 10
806.4341878675818
 20
427.6832759124335
 30
0.0
 11
804.9625008675819
 21
427.6832759124335
 31
0.0
  0
LINE
  5
79C
330
B6B
100
AcDbEntity
  8
1
  6
Continuous
 62
   155
370
    35
100
AcDbLine
 10
806.9366118675819
 20
427.1808529124335
 30
0.0
 11
806.9067898675819
 21
427.1510309124334
 31
0.0
  0
LINE
  5
79D
330
B6B
100
AcDbEntity
  8
1
  6
Continuous
 62
   155
370
    35
100
AcDbLine
 10
806.4043658675819
 20
427.6534539124335
 30
0.0
 11
806.4341878675818
 21
427.6832759124335
 31
0.0
  0
LINE
  5
79E
330
B6B
100
AcDbEntity
  8
1
  6
Continuous
 62
   155
370
    70
100
AcDbLine
 10
803.0878268675818
 20
427.1007039124335
 30
0.0
 11
803.4307388675819
 21
426.7577919124334
 31
0.0
  0
LINE
  5
79F
330
B6B
100
AcDbEntity
  8
1
  6
Continuous
 62
   155
370
    70
100
AcDbLine
 10
803.0878268675818
 20
425.2917039124335
 30
0.0
 11
803.4307388675819
 21
425.6346159124334
 31
0.0
  0
LINE
  5
7A0
330
B6B
100
AcDbEntity
  8
1
  6
Continuous
 62
   155
370
    70
100
AcDbLine
 10
804.9625008675819
 20
427.6832759124335
 30
0.0
 11
804.8967898675819
 21
427.6534539124335
 31
0.0
  0
LINE
  5
7A1
330
B6B
100
AcDbEntity
  8
1
  6
Continuous
 62
   155
370
    70
100
AcDbLine
 10
805.0475398675819
 20
428.6045259124335
 30
0.0
 11
804.9625008675819
 21
427.6832759124335
 31
0.0
  0
LINE
  5
7A2
330
B6B
100
AcDbEntity
  8
1
  6
Continuous
 62
   155
370
    70
100
AcDbLine
 10
804.8967898675819
 20
427.6534539124335
 30
0.0
 11
806.4043658675819
 21
427.6534539124335
 31
0.0
  0
ELLIPSE
  5
7A3
330
B6B
100
AcDbEntity
  8
1
  6
Continuous
 62
   155
370
    70
100
AcDbEllipse
 10
806.7691118675818
 20
427.5157759124335
 30
0.0
 11
0.8248418409004769
 21
0.8248418409005035
 31
0.0
210
0.0
220
0.0
230
1.0
 40
0.86155
 41
5.572024093066946
 42
6.994346521292767
  0
ELLIPSE
  5
7A4
330
B6B
100
AcDbEntity
  8
1
  6
Continuous
 62
   155
370
    70
100
AcDbEllipse
 10
806.4340348675819
 20
427.1806989124335
 30
0.0
 11
0.3554294000577088
 21
0.3554294000577203
 31
0.0
210
0.0
220
0.0
230
1.0
 40
0.9996950000000001
 41
5.497939437029539
 42
7.068431177329515
  0
ELLIPSE
  5
7A5
330
B6B
100
AcDbEntity
  8
1
  6
Continuous
 62
   155
370
    70
100
AcDbEllipse
 10
806.4042128675819
 20
427.1508769124335
 30
0.0
 11
0.3554294000577088
 21
0.3554294000577203
 31
0.0
210
0.0
220
0.0
230
1.0
 40
0.9996950000000001
 41
5.497939437029539
 42
7.068431177329515
  0
LINE
  5
7A6
330
B6B
100
AcDbEntity
  8
1
  6
Continuous
 62
   155
370
    70
100
AcDbLine
 10
805.0475398675819
 20
455.0433819124335
 30
0.0
 11
806.9301698675819
 21
455.0433819124335
 31
0.0
  0
LINE
  5
7A7
330
B6B
100
AcDbEntity
  8
1
  6
Continuous
 62
   155
370
    70
100
AcDbLine
 10
806.4341878675818
 20
455.9646319124334
 30
0.0
 11
804.9625008675819
 21
455.9646319124334
 31
0.0
  0
LINE
  5
7A8
330
B6B
100
AcDbEntity
  8
1
  6
Continuous
 62
   155
370
    35
100
AcDbLine
 10
806.4341878675818
 20
455.9646319124334
 30
0.0
 11
806.4043658675819
 21
455.9944539124335
 31
0.0
  0
LINE
  5
7A9
330
B6B
100
AcDbEntity
  8
1
  6
Continuous
 62
   155
370
    35
100
AcDbLine
 10
806.9067898675819
 20
456.4968769124335
 30
0.0
 11
806.9366118675819
 21
456.4670549124335
 31
0.0
  0
LINE
  5
7AA
330
B6B
100
AcDbEntity
  8
1
  6
Continuous
 62
   155
370
    70
100
AcDbLine
 10
803.0878268675818
 20
456.5472039124335
 30
0.0
 11
803.4307388675819
 21
456.8901159124335
 31
0.0
  0
LINE
  5
7AB
330
B6B
100
AcDbEntity
  8
1
  6
Continuous
 62
   155
370
    70
100
AcDbLine
 10
805.0475398675819
 20
455.0433819124335
 30
0.0
 11
804.9625008675819
 21
455.9646319124334
 31
0.0
  0
LINE
  5
7AC
330
B6B
100
AcDbEntity
  8
1
  6
Continuous
 62
   155
370
    70
100
AcDbLine
 10
804.9625008675819
 20
455.9646319124334
 30
0.0
 11
804.8967898675819
 21
455.9944539124335
 31
0.0
  0
LINE
  5
7AD
330
B6B
100
AcDbEntity
  8
1
  6
Continuous
 62
   155
370
    70
100
AcDbLine
 10
804.8967898675819
 20
455.9944539124335
 30
0.0
 11
806.4043658675819
 21
455.9944539124335
 31
0.0
  0
LINE
  5
7AE
330
B6B
100
AcDbEntity
  8
1
  6
Continuous
 62
   155
370
    70
100
AcDbLine
 10
803.0878268675818
 20
458.3562039124334
 30
0.0
 11
803.3619048675819
 21
458.0821259124335
 31
0.0
  0
ELLIPSE
  5
7AF
330
B6B
100
AcDbEntity
  8
1
  6
Continuous
 62
   155
370
    70
100
AcDbEllipse
 10
806.7691118675818
 20
456.1321319124335
 30
0.0
 11
-0.8248418409004151
 21
0.8248418409004395
 31
0.0
210
0.0
220
0.0
230
1.0
 40
0.8615500000000001
 41
2.430431439476936
 42
3.852753867702786
  0
ELLIPSE
  5
7B0
330
B6B
100
AcDbEntity
  8
1
  6
Continuous
 62
   155
370
    70
100
AcDbEllipse
 10
806.4340348675819
 20
456.4672089124335
 30
0.0
 11
0.3554294000577088
 21
-0.3554294000577203
 31
0.0
210
0.0
220
0.0
230
1.0
 40
0.9996950000000001
 41
5.497939437029657
 42
7.068431177329633
  0
ELLIPSE
  5
7B1
330
B6B
100
AcDbEntity
  8
1
  6
Continuous
 62
   155
370
    70
100
AcDbEllipse
 10
806.4042128675819
 20
456.4970309124334
 30
0.0
 11
0.3554294000577088
 21
-0.3554294000577203
 31
0.0
210
0.0
220
0.0
230
1.0
 40
0.9996950000000001
 41
5.497939437029657
 42
7.068431177329633
  0
LINE
  5
7B2
330
B6B
100
AcDbEntity
  8
1
  6
Continuous
 62
   155
370
    70
100
AcDbLine
 10
804.8924148675818
 20
514.4854539124335
 30
0.0
 11
779.6109948675819
 21
514.4854539124335
 31
0.0
  0
LINE
  5
7B3
330
B6B
100
AcDbEntity
  8
1
  6
Continuous
 62
   155
370
    70
100
AcDbLine
 10
779.7718268675818
 20
504.5862039124335
 30
0.0
 11
804.8967898675819
 21
504.5862039124335
 31
0.0
  0
LINE
  5
7B4
330
B6B
100
AcDbEntity
  8
1
  6
Continuous
 62
   155
370
    70
100
AcDbLine
 10
779.7718268675818
 20
512.8911899124334
 30
0.0
 11
804.8924148675818
 21
512.8911899124334
 31
0.0
  0
LINE
  5
7B5
330
B6B
100
AcDbEntity
  8
1
  6
Continuous
 62
   155
370
    70
100
AcDbLine
 10
779.9225768675818
 20
502.7772039124335
 30
0.0
 11
803.0878268675818
 21
502.7772039124335
 31
0.0
  0
LINE
  5
7B6
330
B6B
100
AcDbEntity
  8
1
  6
Continuous
 62
   155
370
    70
100
AcDbLine
 10
779.5796648675819
 20
503.0512819124335
 30
0.0
 11
803.3619048675819
 21
503.0512819124335
 31
0.0
  0
CIRCLE
  5
7B7
330
B6B
100
AcDbEntity
  8
1
  6
Continuous
 62
   155
370
    70
100
AcDbCircle
 10
788.0882018675819
 20
509.6614539124334
 30
0.0
 40
2.26125
  0
LINE
  5
7B8
330
B6B
100
AcDbEntity
  8
1
  6
CENTER
 62
    18
370
    35
100
AcDbLine
 10
780.0882018675819
 20
509.6614539124334
 30
0.0
 11
796.0882018675819
 21
509.6614539124334
 31
0.0
  0
LINE
  5
7B9
330
B6B
100
AcDbEntity
  8
1
  6
CENTER
 62
    18
370
    35
100
AcDbLine
 10
774.9878268675818
 20
499.6114539124335
 30
0.0
 11
790.9878268675818
 21
499.6114539124335
 31
0.0
  0
LINE
  5
7BA
330
B6B
100
AcDbEntity
  8
1
  6
Continuous
 62
   155
370
    70
100
AcDbLine
 10
779.7718268675818
 20
504.5862039124335
 30
0.0
 11
780.4250768675819
 21
505.2280649124335
 31
0.0
  0
LINE
  5
7BB
330
B6B
100
AcDbEntity
  8
1
  6
Continuous
 62
   155
370
    70
100
AcDbLine
 10
780.4250768675819
 20
505.2280649124335
 30
0.0
 11
780.4250768675819
 21
512.2493289124334
 31
0.0
  0
LINE
  5
7BC
330
B6B
100
AcDbEntity
  8
1
  6
Continuous
 62
   155
370
    70
100
AcDbLine
 10
779.7718268675818
 20
512.8911899124334
 30
0.0
 11
780.4250768675819
 21
512.2493289124334
 31
0.0
  0
LINE
  5
7BD
330
B6B
100
AcDbEntity
  8
1
  6
Continuous
 62
   155
370
    70
100
AcDbLine
 10
779.7718268675818
 20
504.5862039124335
 30
0.0
 11
779.7718268675818
 21
512.8911899124334
 31
0.0
  0
LINE
  5
7BE
330
B6B
100
AcDbEntity
  8
1
  6
Continuous
 62
   155
370
    70
100
AcDbLine
 10
779.5796648675819
 20
503.0512819124335
 30
0.0
 11
779.9225768675818
 21
502.7772039124335
 31
0.0
  0
CIRCLE
  5
7BF
330
B6B
100
AcDbEntity
  8
1
  6
Continuous
 62
   155
370
    70
100
AcDbCircle
 10
782.9878268675818
 20
499.6114539124335
 30
0.0
 40
1.3065
  0
ELLIPSE
  5
7C0
330
B6B
100
AcDbEntity
  8
1
  6
Continuous
 62
   155
370
    70
100
AcDbEllipse
 10
779.6111468675819
 20
512.4853779124335
 30
0.0
 11
-1.414321262261758
 21
1.4143212622618
 31
0.0
210
0.0
220
0.0
230
1.0
 40
0.999924
 41
5.497825219993093
 42
7.068545394366014
  0
LINE
  5
7C1
330
B6B
100
AcDbEntity
  8
1
  6
CENTER
 62
    18
370
    35
100
AcDbLine
 10
782.9878268675818
 20
491.6114539124335
 30
0.0
 11
782.9878268675818
 21
507.6114539124335
 31
0.0
  0
LINE
  5
7C2
330
B6B
100
AcDbEntity
  8
1
  6
Continuous
 62
   155
370
    70
100
AcDbLine
 10
805.0475398675819
 20
492.8491509124335
 30
0.0
 11
806.9301698675819
 21
492.8491509124335
 31
0.0
  0
LINE
  5
7C3
330
B6B
100
AcDbEntity
  8
1
  6
Continuous
 62
   155
370
    35
100
AcDbLine
 10
806.4043658675819
 20
491.8980789124334
 30
0.0
 11
806.4341878675818
 21
491.9279009124335
 31
0.0
  0
LINE
  5
7C4
330
B6B
100
AcDbEntity
  8
1
  6
Continuous
 62
   155
370
    70
100
AcDbLine
 10
806.4341878675818
 20
491.9279009124335
 30
0.0
 11
804.9625008675819
 21
491.9279009124335
 31
0.0
  0
LINE
  5
7C5
330
B6B
100
AcDbEntity
  8
1
  6
Continuous
 62
   155
370
    35
100
AcDbLine
 10
806.9366118675819
 20
491.4254779124335
 30
0.0
 11
806.9067898675819
 21
491.3956559124335
 31
0.0
  0
LINE
  5
7C6
330
B6B
100
AcDbEntity
  8
1
  6
Continuous
 62
   155
370
    70
100
AcDbLine
 10
805.0978268675818
 20
514.4512489124335
 30
0.0
 11
804.8924148675818
 21
514.4854539124335
 31
0.0
  0
LINE
  5
7C7
330
B6B
100
AcDbEntity
  8
1
  6
Continuous
 62
   155
370
    70
100
AcDbLine
 10
805.0978268675818
 20
512.5482779124335
 30
0.0
 11
804.8924148675818
 21
512.8911899124334
 31
0.0
  0
LINE
  5
7C8
330
B6B
100
AcDbEntity
  8
1
  6
Continuous
 62
   155
370
    70
100
AcDbLine
 10
805.0978268675818
 20
514.4512489124335
 30
0.0
 11
805.0978268675818
 21
512.5482779124335
 31
0.0
  0
LINE
  5
7C9
330
B6B
100
AcDbEntity
  8
1
  6
Continuous
 62
   155
370
    70
100
AcDbLine
 10
804.9625008675819
 20
491.9279009124335
 30
0.0
 11
804.8967898675819
 21
491.8980789124334
 31
0.0
  0
LINE
  5
7CA
330
B6B
100
AcDbEntity
  8
1
  6
Continuous
 62
   155
370
    70
100
AcDbLine
 10
805.0475398675819
 20
492.8491509124335
 30
0.0
 11
804.9625008675819
 21
491.9279009124335
 31
0.0
  0
LINE
  5
7CB
330
B6B
100
AcDbEntity
  8
1
  6
Continuous
 62
   155
370
    70
100
AcDbLine
 10
805.0475398675819
 20
504.9291159124335
 30
0.0
 11
805.0475398675819
 21
492.8491509124335
 31
0.0
  0
LINE
  5
7CC
330
B6B
100
AcDbEntity
  8
1
  6
Continuous
 62
   155
370
    70
100
AcDbLine
 10
805.0475398675819
 20
504.9291159124335
 30
0.0
 11
804.8967898675819
 21
504.5862039124335
 31
0.0
  0
LINE
  5
7CD
330
B6B
100
AcDbEntity
  8
1
  6
Continuous
 62
   155
370
    70
100
AcDbLine
 10
804.8967898675819
 20
491.8980789124334
 30
0.0
 11
806.4043658675819
 21
491.8980789124334
 31
0.0
  0
LINE
  5
7CE
330
B6B
100
AcDbEntity
  8
1
  6
Continuous
 62
   155
370
    70
100
AcDbLine
 10
804.8967898675819
 20
504.5862039124335
 30
0.0
 11
804.8967898675819
 21
491.8980789124334
 31
0.0
  0
LINE
  5
7CF
330
B6B
100
AcDbEntity
  8
1
  6
Continuous
 62
   155
370
    70
100
AcDbLine
 10
804.8924148675818
 20
514.4854539124335
 30
0.0
 11
804.8924148675818
 21
512.8911899124334
 31
0.0
  0
LINE
  5
7D0
330
B6B
100
AcDbEntity
  8
1
  6
Continuous
 62
   155
370
    70
100
AcDbLine
 10
803.0878268675818
 20
502.7772039124335
 30
0.0
 11
803.3619048675819
 21
503.0512819124335
 31
0.0
  0
ELLIPSE
  5
7D1
330
B6B
100
AcDbEntity
  8
1
  6
Continuous
 62
   155
370
    70
100
AcDbEllipse
 10
806.7691118675818
 20
491.7604009124335
 30
0.0
 11
0.824841840900407
 21
0.8248418409004337
 31
0.0
210
0.0
220
0.0
230
1.0
 40
0.86155
 41
5.57202409306666
 42
6.994346521292442
  0
ELLIPSE
  5
7D2
330
B6B
100
AcDbEntity
  8
1
  6
Continuous
 62
   155
370
    70
100
AcDbEllipse
 10
806.4340348675819
 20
491.4253239124334
 30
0.0
 11
0.3554294000577088
 21
0.3554294000577203
 31
0.0
210
0.0
220
0.0
230
1.0
 40
0.9996950000000001
 41
5.497939437029539
 42
7.068431177329515
  0
ELLIPSE
  5
7D3
330
B6B
100
AcDbEntity
  8
1
  6
Continuous
 62
   155
370
    70
100
AcDbEllipse
 10
806.4042128675819
 20
491.3955019124335
 30
0.0
 11
0.3554294000577088
 21
0.3554294000577203
 31
0.0
210
0.0
220
0.0
230
1.0
 40
0.9996950000000001
 41
5.497939437029539
 42
7.068431177329515
  0
LINE
  5
7D4
330
B6B
100
AcDbEntity
  8
1
  6
CENTER
 62
    18
370
    35
100
AcDbLine
 10
788.0882018675819
 20
501.6614539124334
 30
0.0
 11
788.0882018675819
 21
517.6614539124334
 31
0.0
  0
LINE
  5
7D5
330
B6B
100
AcDbEntity
  8
1
  6
Continuous
 62
     8
370
    70
100
AcDbLine
 10
771.2610708675819
 20
582.5206209124335
 30
0.0
 11
771.2610708675819
 21
608.2856209124335
 31
0.0
  0
LINE
  5
7D6
330
B6B
100
AcDbEntity
  8
1
  6
Continuous
 62
   155
370
    70
100
AcDbLine
 10
806.9067898675819
 20
588.8706209124334
 30
0.0
 11
806.4043658675819
 21
588.8706209124334
 31
0.0
  0
LINE
  5
7D7
330
B6B
100
AcDbEntity
  8
1
  6
Continuous
 62
   155
370
    70
100
AcDbLine
 10
806.4341878675818
 20
590.5791209124335
 30
0.0
 11
806.9366118675819
 21
590.5791209124335
 31
0.0
  0
LINE
  5
7D8
330
B6B
100
AcDbEntity
  8
1
  6
Continuous
 62
   155
370
    70
100
AcDbLine
 10
806.9366118675819
 20
590.5791209124335
 30
0.0
 11
806.9067898675819
 21
588.8706209124334
 31
0.0
  0
LINE
  5
7D9
330
B6B
100
AcDbEntity
  8
1
  6
Continuous
 62
   155
370
    70
100
AcDbLine
 10
804.8967898675819
 20
588.8706209124334
 30
0.0
 11
806.4043658675819
 21
588.8706209124334
 31
0.0
  0
LINE
  5
7DA
330
B6B
100
AcDbEntity
  8
1
  6
Continuous
 62
   155
370
    70
100
AcDbLine
 10
806.4341878675818
 20
590.5791209124335
 30
0.0
 11
804.9819548675819
 21
590.5791209124335
 31
0.0
  0
LINE
  5
7DB
330
B6B
100
AcDbEntity
  8
1
  6
Continuous
 62
   155
370
    35
100
AcDbLine
 10
806.4043658675819
 20
588.8706209124334
 30
0.0
 11
806.4341878675818
 21
590.5791209124335
 31
0.0
  0
LINE
  5
7DC
330
B6B
100
AcDbEntity
  8
1
  6
Continuous
 62
   155
370
    70
100
AcDbLine
 10
777.6943908675819
 20
598.4181209124334
 30
0.0
 11
777.7250878675818
 21
601.9356209124335
 31
0.0
  0
LINE
  5
7DD
330
B6B
100
AcDbEntity
  8
1
  6
Continuous
 62
   155
370
    70
100
AcDbLine
 10
777.7250878675818
 20
601.9356209124335
 30
0.0
 11
778.7249738675819
 21
601.9356209124335
 31
0.0
  0
LINE
  5
7DE
330
B6B
100
AcDbEntity
  8
1
  6
Continuous
 62
   155
370
    35
100
AcDbLine
 10
778.7249738675819
 20
601.9356209124335
 30
0.0
 11
778.6942768675818
 21
598.4181209124334
 31
0.0
  0
LINE
  5
7DF
330
B6B
100
AcDbEntity
  8
1
  6
Continuous
 62
   155
370
    70
100
AcDbLine
 10
804.8920788675819
 20
588.8706209124334
 30
0.0
 11
804.8967898675819
 21
588.8706209124334
 31
0.0
  0
LINE
  5
7E0
330
B6B
100
AcDbEntity
  8
1
  6
Continuous
 62
   155
370
    70
100
AcDbLine
 10
804.9088568675819
 20
589.1843639124335
 30
0.0
 11
804.8967898675819
 21
588.8706209124334
 31
0.0
  0
LINE
  5
7E1
330
B6B
100
AcDbEntity
  8
1
  6
Continuous
 62
   155
370
    70
100
AcDbLine
 10
779.6109948675819
 20
588.8706209124334
 30
0.0
 11
777.6110708675818
 21
588.8706209124334
 31
0.0
  0
LINE
  5
7E2
330
B6B
100
AcDbEntity
  8
1
  6
Continuous
 62
   155
370
    70
100
AcDbLine
 10
777.6943908675819
 20
598.4181209124334
 30
0.0
 11
779.6943148675819
 21
598.4181209124334
 31
0.0
  0
LINE
  5
7E3
330
B6B
100
AcDbEntity
  8
1
  6
Continuous
 62
   155
370
    70
100
AcDbLine
 10
777.6110708675818
 20
588.8706209124334
 30
0.0
 11
777.6943908675819
 21
598.4181209124334
 31
0.0
  0
LINE
  5
7E4
330
B6B
100
AcDbEntity
  8
1
  6
Continuous
 62
   155
370
    35
100
AcDbLine
 10
779.6943148675819
 20
598.4181209124334
 30
0.0
 11
779.6109948675819
 21
588.8706209124334
 31
0.0
  0
LINE
  5
7E5
330
B6B
100
AcDbEntity
  8
1
  6
Continuous
 62
   155
370
    70
100
AcDbLine
 10
804.8924148675818
 20
588.8706209124334
 30
0.0
 11
779.6109948675819
 21
588.8706209124334
 31
0.0
  0
LINE
  5
7E6
330
B6B
100
AcDbEntity
  8
1
  6
Continuous
 62
   155
370
    70
100
AcDbLine
 10
805.0978268675818
 20
592.7901209124335
 30
0.0
 11
804.8924148675818
 21
588.8706209124334
 31
0.0
  0
LINE
  5
7E7
330
B6B
100
AcDbEntity
  8
1
  6
Continuous
 62
     8
370
    70
100
AcDbLine
 10
1172.915045867582
 20
520.8354539124334
 30
0.0
 11
1069.061533867582
 21
520.8354539124334
 31
0.0
  0
LINE
  5
7E8
330
B6B
100
AcDbEntity
  8
1
  6
Continuous
 62
     8
370
    70
100
AcDbLine
 10
1069.061533867582
 20
362.8124539124335
 30
0.0
 11
1172.915045867582
 21
362.8124539124335
 31
0.0
  0
LINE
  5
7E9
330
B6B
100
AcDbEntity
  8
1
  6
Continuous
 62
   155
370
    70
100
AcDbLine
 10
1097.471289867582
 20
471.6222039124335
 30
0.0
 11
1117.068789867582
 21
471.6222039124335
 31
0.0
  0
LINE
  5
7EA
330
B6B
100
AcDbEntity
  8
1
  6
Continuous
 62
   155
370
    70
100
AcDbLine
 10
1097.471289867582
 20
476.2954539124335
 30
0.0
 11
1117.068789867582
 21
476.2954539124335
 31
0.0
  0
LINE
  5
7EB
330
B6B
100
AcDbEntity
  8
1
  6
Continuous
 62
   155
370
    70
100
AcDbLine
 10
1097.471289867582
 20
412.0257039124335
 30
0.0
 11
1117.068789867582
 21
412.0257039124335
 31
0.0
  0
LINE
  5
7EC
330
B6B
100
AcDbEntity
  8
1
  6
Continuous
 62
   155
370
    70
100
AcDbLine
 10
1097.471289867582
 20
407.3524539124335
 30
0.0
 11
1117.068789867582
 21
407.3524539124335
 31
0.0
  0
LINE
  5
7ED
330
B6B
100
AcDbEntity
  8
1
  6
Continuous
 62
   155
370
    70
100
AcDbLine
 10
1139.078289867582
 20
369.1966589124335
 30
0.0
 11
1102.898289867582
 21
369.1966589124335
 31
0.0
  0
LINE
  5
7EE
330
B6B
100
AcDbEntity
  8
1
  6
Continuous
 62
   155
370
    70
100
AcDbLine
 10
1077.494777867582
 20
369.2457739124335
 30
0.0
 11
1164.481801867582
 21
369.2457739124335
 31
0.0
  0
LINE
  5
7EF
330
B6B
100
AcDbEntity
  8
1
  6
Continuous
 62
   155
370
    70
100
AcDbLine
 10
1077.494777867582
 20
514.4021339124334
 30
0.0
 11
1164.481801867582
 21
514.4021339124334
 31
0.0
  0
LINE
  5
7F0
330
B6B
100
AcDbEntity
  8
1
  6
Continuous
 62
   155
370
    70
100
AcDbLine
 10
1139.078289867582
 20
514.4512489124335
 30
0.0
 11
1102.898289867582
 21
514.4512489124335
 31
0.0
  0
LINE
  5
7F1
330
B6B
100
AcDbEntity
  8
1
  6
Continuous
 62
   155
370
    70
100
AcDbLine
 10
1157.704305867582
 20
380.5570859124335
 30
0.0
 11
1084.272273867582
 21
380.5570859124335
 31
0.0
  0
LINE
  5
7F2
330
B6B
100
AcDbEntity
  8
1
  6
Continuous
 62
   155
370
    70
100
AcDbLine
 10
1165.481839867582
 20
504.8486019124335
 30
0.0
 11
1076.494739867582
 21
504.8486019124335
 31
0.0
  0
LINE
  5
7F3
330
B6B
100
AcDbEntity
  8
1
  6
Continuous
 62
   155
370
    70
100
AcDbLine
 10
1157.704305867582
 20
503.0908219124335
 30
0.0
 11
1084.272273867582
 21
503.0908219124335
 31
0.0
  0
LINE
  5
7F4
330
B6B
100
AcDbEntity
  8
1
  6
Continuous
 62
   155
370
    70
100
AcDbLine
 10
1165.481839867582
 20
378.7993059124335
 30
0.0
 11
1076.494739867582
 21
378.7993059124335
 31
0.0
  0
LINE
  5
7F5
330
B6B
100
AcDbEntity
  8
1
  6
Continuous
 62
   155
370
    70
100
AcDbLine
 10
1165.451142867582
 20
504.7872039124335
 30
0.0
 11
1076.525436867582
 21
504.7872039124335
 31
0.0
  0
LINE
  5
7F6
330
B6B
100
AcDbEntity
  8
1
  6
Continuous
 62
   155
370
    70
100
AcDbLine
 10
1164.784182867582
 20
503.5430719124334
 30
0.0
 11
1077.192396867582
 21
503.5430719124334
 31
0.0
  0
LINE
  5
7F7
330
B6B
100
AcDbEntity
  8
1
  6
Continuous
 62
   155
370
    70
100
AcDbLine
 10
1165.451142867582
 20
378.8607039124335
 30
0.0
 11
1076.525436867582
 21
378.8607039124335
 31
0.0
  0
LINE
  5
7F8
330
B6B
100
AcDbEntity
  8
1
  6
Continuous
 62
   155
370
    70
100
AcDbLine
 10
1164.784182867582
 20
380.1048359124335
 30
0.0
 11
1077.192396867582
 21
380.1048359124335
 31
0.0
  0
DIMENSION
  5
7F9
330
B6B
100
AcDbEntity
  8
MiniCADViewLayer
 62
     3
370
    70
100
AcDbDimension
280
     0
 10
1120.988289867582
 20
509.6614539124334
 30
0.0
 11
1120.988289867582
 21
509.6614539124334
 31
0.0
 70
    32
  1
70.20
 71
     5
 42
-1.0
 73
     0
 74
     0
 75
     0
  3
QCADDimStyle
100
AcDbAlignedDimension
 13
1085.888664867582
 23
509.6614539124334
 33
0.0
 14
1156.087914867582
 24
509.6614539124334
 34
0.0
100
AcDbRotatedDimension
  0
DIMENSION
  5
7FA
330
B6B
100
AcDbEntity
  8
MiniCADViewLayer
 62
     3
370
    70
100
AcDbDimension
280
     0
 10
1120.988289867582
 20
499.6114539124335
 30
0.0
 11
1120.988289867582
 21
499.6114539124335
 31
0.0
 70
    32
  1
80.40
 71
     5
 42
-1.0
 73
     0
 74
     0
 75
     0
  3
QCADDimStyle
100
AcDbAlignedDimension
 13
1080.788289867582
 23
499.6114539124335
 33
0.0
 14
1161.188289867582
 24
499.6114539124335
 34
0.0
100
AcDbRotatedDimension
  0
DIMENSION
  5
7FB
330
B6B
100
AcDbEntity
  8
MiniCADViewLayer
 62
     3
370
    70
100
AcDbDimension
280
     0
 10
1123.628199587024
 20
452.6779539124335
 30
0.0
 11
1123.628199587024
 21
473.9337039124334
 31
0.0
 70
    32
  1
42.51
 71
     5
 42
-1.0
 73
     0
 74
     0
 75
     0
  3
QCADDimStyle
100
AcDbAlignedDimension
 13
1104.803886867582
 23
452.6779539124335
 33
0.0
 14
1104.803886867582
 24
495.1894539124335
 34
0.0
 50
90.0
100
AcDbRotatedDimension
  0
DIMENSION
  5
7FC
330
B6B
100
AcDbEntity
  8
MiniCADViewLayer
 62
     3
370
    70
100
AcDbDimension
280
     0
 10
1084.271264870705
 20
383.5288440426805
 30
0.0
 11
1121.014987156419
 21
383.4696245426805
 31
0.0
 70
    33
  1
73.49
 71
     5
 42
-1.0
 73
     0
 74
     0
 75
     0
  3
QCADDimStyle
100
AcDbAlignedDimension
 13
1084.272273867582
 23
384.1548929124335
 33
0.0
 14
1157.75971843901
 24
384.0364539124334
 34
0.0
  0
DIMENSION
  5
7FD
330
B6B
100
AcDbEntity
  8
MiniCADViewLayer
 62
     3
370
    70
100
AcDbDimension
280
     0
 10
1075.494853867582
 20
526.9679520331748
 30
0.0
 11
1120.988289867582
 21
526.9679520331748
 31
0.0
 70
    32
  1
90.99
 71
     5
 42
-1.0
 73
     0
 74
     0
 75
     0
  3
QCADDimStyle
100
AcDbAlignedDimension
 13
1075.494853867582
 23
508.1254059124335
 33
0.0
 14
1166.481725867582
 24
508.1254059124335
 34
0.0
100
AcDbRotatedDimension
  0
DIMENSION
  5
7FE
330
B6B
100
AcDbEntity
  8
PUB_DIM尺寸
  6
Continuous
 62
     3
 48
0.7227935834703203
370
    70
100
AcDbDimension
280
     0
 10
1120.988289867582
 20
464.3971309870892
 30
0.0
 11
1120.988289867582
 21
464.3971309870892
 31
0.0
 70
    32
 71
     5
 42
-1.0
 73
     0
 74
     0
 75
     0
  3
QCADDimStyle
100
AcDbAlignedDimension
 13
1076.994958867582
 23
464.3971309870892
 33
0.0
 14
1164.981620867582
 24
464.3971309870892
 34
0.0
 50
180.0
100
AcDbRotatedDimension
  0
LINE
  5
7FF
330
B6B
100
AcDbEntity
  8
1
  6
Continuous
 62
     8
370
    70
100
AcDbLine
 10
985.2457898675818
 20
520.8354539124334
 30
0.0
 11
959.4807898675818
 21
520.8354539124334
 31
0.0
  0
LINE
  5
800
330
B6B
100
AcDbEntity
  8
1
  6
Continuous
 62
     8
370
    70
100
AcDbLine
 10
959.4807898675818
 20
362.8124539124335
 30
0.0
 11
985.2457898675818
 21
362.8124539124335
 31
0.0
  0
LINE
  5
801
330
B6B
100
AcDbEntity
  8
1
  6
Continuous
 62
   155
370
    70
100
AcDbLine
 10
975.3782898675819
 20
369.2457739124335
 30
0.0
 11
965.8307898675819
 21
369.1624539124335
 31
0.0
  0
LINE
  5
802
330
B6B
100
AcDbEntity
  8
1
  6
Continuous
 62
   155
370
    70
100
AcDbLine
 10
965.8307898675819
 20
514.4854539124335
 30
0.0
 11
975.3782898675819
 21
514.4021339124334
 31
0.0
  0
LINE
  5
803
330
B6B
100
AcDbEntity
  8
1
  6
Continuous
 62
   155
370
    35
100
AcDbLine
 10
975.3782898675819
 20
512.4022099124335
 30
0.0
 11
965.8307898675819
 21
512.4855299124335
 31
0.0
  0
LINE
  5
804
330
B6B
100
AcDbEntity
  8
1
  6
Continuous
 62
   155
370
    70
100
AcDbLine
 10
969.7502898675818
 20
489.3604539124335
 30
0.0
 11
965.8307898675819
 21
489.5658659124335
 31
0.0
  0
LINE
  5
805
330
B6B
100
AcDbEntity
  8
1
  6
Continuous
 62
   155
370
    70
100
AcDbLine
 10
969.7502898675818
 20
458.5069539124335
 30
0.0
 11
965.8307898675819
 21
458.3015419124335
 31
0.0
  0
LINE
  5
806
330
B6B
100
AcDbEntity
  8
1
  6
Continuous
 62
   155
370
    70
100
AcDbLine
 10
969.7502898675818
 20
425.1409539124335
 30
0.0
 11
965.8307898675819
 21
425.3463659124334
 31
0.0
  0
LINE
  5
807
330
B6B
100
AcDbEntity
  8
1
  6
Continuous
 62
   155
370
    70
100
AcDbLine
 10
969.7502898675818
 20
394.2874539124335
 30
0.0
 11
965.8307898675819
 21
394.0820419124335
 31
0.0
  0
LINE
  5
808
330
B6B
100
AcDbEntity
  8
1
  6
Continuous
 62
   155
370
    35
100
AcDbLine
 10
965.8307898675819
 20
371.1623779124334
 30
0.0
 11
975.3782898675819
 21
371.2456979124335
 31
0.0
  0
LINE
  5
809
330
B6B
100
AcDbEntity
  8
1
  6
Continuous
 62
     8
370
    70
100
AcDbLine
 10
959.4807898675818
 20
362.8124539124335
 30
0.0
 11
959.4807898675818
 21
520.8354539124334
 31
0.0
  0
LINE
  5
80A
330
B6B
100
AcDbEntity
  8
1
  6
Continuous
 62
   155
370
    70
100
AcDbLine
 10
868.7303778675819
 20
489.3604539124335
 30
0.0
 11
868.7303778675819
 21
458.5069539124335
 31
0.0
  0
LINE
  5
80B
330
B6B
100
AcDbEntity
  8
1
  6
Continuous
 62
   155
370
    70
100
AcDbLine
 10
850.1218268675818
 20
476.2954539124335
 30
0.0
 11
850.1218268675818
 21
471.6222039124335
 31
0.0
  0
LINE
  5
80C
330
B6B
100
AcDbEntity
  8
1
  6
Continuous
 62
   155
370
    70
100
AcDbLine
 10
852.7348268675819
 20
476.2954539124335
 30
0.0
 11
852.7348268675819
 21
471.6222039124335
 31
0.0
  0
LINE
  5
80D
330
B6B
100
AcDbEntity
  8
1
  6
Continuous
 62
   155
370
    70
100
AcDbLine
 10
852.8353268675819
 20
476.3959539124335
 30
0.0
 11
852.8353268675819
 21
471.5217039124335
 31
0.0
  0
LINE
  5
80E
330
B6B
100
AcDbEntity
  8
1
  6
Continuous
 62
   155
370
    70
100
AcDbLine
 10
827.0068268675818
 20
476.3959539124335
 30
0.0
 11
827.0068268675818
 21
471.5217039124335
 31
0.0
  0
LINE
  5
80F
330
B6B
100
AcDbEntity
  8
1
  6
Continuous
 62
   155
370
    70
100
AcDbLine
 10
827.1073268675818
 20
476.2954539124335
 30
0.0
 11
827.1073268675818
 21
471.6222039124335
 31
0.0
  0
LINE
  5
810
330
B6B
100
AcDbEntity
  8
1
  6
Continuous
 62
   155
370
    70
100
AcDbLine
 10
850.0213268675818
 20
476.3959539124335
 30
0.0
 11
850.0213268675818
 21
471.5217039124335
 31
0.0
  0
LINE
  5
811
330
B6B
100
AcDbEntity
  8
1
  6
Continuous
 62
   155
370
    70
100
AcDbLine
 10
846.7048268675819
 20
476.2954539124335
 30
0.0
 11
846.7048268675819
 21
471.6222039124335
 31
0.0
  0
LINE
  5
812
330
B6B
100
AcDbEntity
  8
1
  6
Continuous
 62
   155
370
    70
100
AcDbLine
 10
965.8307898675819
 20
489.5656509124335
 30
0.0
 11
965.8307898675819
 21
458.3017989124335
 31
0.0
  0
LINE
  5
813
330
B6B
100
AcDbEntity
  8
1
  6
Continuous
 62
   155
370
    70
100
AcDbLine
 10
868.7303778675819
 20
394.2874539124335
 30
0.0
 11
868.7303778675819
 21
425.1409539124335
 31
0.0
  0
LINE
  5
814
330
B6B
100
AcDbEntity
  8
1
  6
Continuous
 62
   155
370
    70
100
AcDbLine
 10
841.5776288675819
 20
392.1754289124335
 30
0.0
 11
866.4530768675819
 21
392.1754289124335
 31
0.0
  0
LINE
  5
815
330
B6B
100
AcDbEntity
  8
1
  6
Continuous
 62
   155
370
    70
100
AcDbLine
 10
866.4530768675819
 20
386.5489539124335
 30
0.0
 11
843.2878268675819
 21
386.5489539124335
 31
0.0
  0
LINE
  5
816
330
B6B
100
AcDbEntity
  8
1
  6
Continuous
 62
   155
370
    70
100
AcDbLine
 10
866.4530768675819
 20
380.8707039124334
 30
0.0
 11
843.2878268675819
 21
380.8707039124334
 31
0.0
  0
LINE
  5
817
330
B6B
100
AcDbEntity
  8
1
  6
Continuous
 62
   155
370
    70
100
AcDbLine
 10
866.5071918675818
 20
391.4719289124334
 30
0.0
 11
841.8843578675819
 21
391.4719289124334
 31
0.0
  0
LINE
  5
818
330
B6B
100
AcDbEntity
  8
1
  6
Continuous
 62
   155
370
    70
100
AcDbLine
 10
842.9449148675818
 20
380.5277919124335
 30
0.0
 11
866.7959888675819
 21
380.5277919124335
 31
0.0
  0
LINE
  5
819
330
B6B
100
AcDbEntity
  8
1
  6
Continuous
 62
   155
370
    70
100
AcDbLine
 10
866.7959888675819
 20
386.8918659124334
 30
0.0
 11
842.9449148675818
 21
386.8918659124334
 31
0.0
  0
LINE
  5
81A
330
B6B
100
AcDbEntity
  8
1
  6
Continuous
 62
   155
370
    70
100
AcDbLine
 10
866.7646588675818
 20
369.1624539124335
 30
0.0
 11
841.4832388675819
 21
369.1624539124335
 31
0.0
  0
LINE
  5
81B
330
B6B
100
AcDbEntity
  8
1
  6
Continuous
 62
   155
370
    70
100
AcDbLine
 10
866.6038268675819
 20
391.3752949124334
 30
0.0
 11
841.9809928675819
 21
391.3752949124334
 31
0.0
  0
LINE
  5
81C
330
B6B
100
AcDbEntity
  8
1
  6
Continuous
 62
   155
370
    70
100
AcDbLine
 10
841.4788638675818
 20
379.0617039124335
 30
0.0
 11
866.6038268675819
 21
379.0617039124335
 31
0.0
  0
LINE
  5
81D
330
B6B
100
AcDbEntity
  8
1
  6
Continuous
 62
   155
370
    70
100
AcDbLine
 10
841.4832388675819
 20
370.7567179124335
 30
0.0
 11
866.6038268675819
 21
370.7567179124335
 31
0.0
  0
CIRCLE
  5
81E
330
B6B
100
AcDbEntity
  8
1
  6
Continuous
 62
   155
370
    70
100
AcDbCircle
 10
858.2874518675818
 20
373.9864539124335
 30
0.0
 40
2.26125
  0
LINE
  5
81F
330
B6B
100
AcDbEntity
  8
1
  6
CENTER
 62
    18
370
    35
100
AcDbLine
 10
850.2874518675818
 20
373.9864539124335
 30
0.0
 11
866.2874518675818
 21
373.9864539124335
 31
0.0
  0
LINE
  5
820
330
B6B
100
AcDbEntity
  8
1
  6
CENTER
 62
    18
370
    35
100
AcDbLine
 10
855.3878268675819
 20
384.0364539124334
 30
0.0
 11
871.3878268675819
 21
384.0364539124334
 31
0.0
  0
LINE
  5
821
330
B6B
100
AcDbEntity
  8
1
  6
Continuous
 62
   155
370
    70
100
AcDbLine
 10
840.6787298675819
 20
388.5588349124334
 30
0.0
 11
841.3281138675818
 21
388.5588349124334
 31
0.0
  0
ELLIPSE
  5
822
330
B6B
100
AcDbEntity
  8
1
  6
Continuous
 62
   155
370
    70
100
AcDbEllipse
 10
841.8023538675818
 20
391.0518049124335
 30
0.0
 11
0.8703555308033415
 21
-0.8703555308033698
 31
0.0
210
0.0
220
0.0
230
1.0
 40
0.816497
 41
2.456873450587559
 42
3.826311856592061
  0
LINE
  5
823
330
B6B
100
AcDbEntity
  8
1
  6
Continuous
 62
   155
370
    70
100
AcDbLine
 10
840.6787298675819
 20
391.2765299124335
 30
0.0
 11
840.6787298675819
 21
388.5588349124334
 31
0.0
  0
LINE
  5
824
330
B6B
100
AcDbEntity
  8
1
  6
Continuous
 62
   155
370
    70
100
AcDbLine
 10
841.3822298675818
 20
390.9698009124335
 30
0.0
 11
841.3822298675818
 21
388.6128869124335
 31
0.0
  0
LINE
  5
825
330
B6B
100
AcDbEntity
  8
1
  6
Continuous
 62
   155
370
    70
100
AcDbLine
 10
841.3281138675818
 20
388.5588349124334
 30
0.0
 11
841.3822298675818
 21
388.6128869124335
 31
0.0
  0
LINE
  5
826
330
B6B
100
AcDbEntity
  8
1
  6
Continuous
 62
   155
370
    70
100
AcDbLine
 10
841.3281138675818
 20
378.7187919124335
 30
0.0
 11
841.3281138675818
 21
388.5588349124334
 31
0.0
  0
LINE
  5
827
330
B6B
100
AcDbEntity
  8
1
  6
Continuous
 62
   155
370
    35
100
AcDbLine
 10
841.4788638675818
 20
390.8731659124335
 30
0.0
 11
841.3822298675818
 21
390.9698009124335
 31
0.0
  0
LINE
  5
828
330
B6B
100
AcDbEntity
  8
1
  6
Continuous
 62
   155
370
    70
100
AcDbLine
 10
841.3281138675818
 20
378.7187919124335
 30
0.0
 11
841.4788638675818
 21
379.0617039124335
 31
0.0
  0
LINE
  5
829
330
B6B
100
AcDbEntity
  8
1
  6
Continuous
 62
   155
370
    70
100
AcDbLine
 10
843.2878268675819
 20
386.5489539124335
 30
0.0
 11
842.9449148675818
 21
386.8918659124334
 31
0.0
  0
LINE
  5
82A
330
B6B
100
AcDbEntity
  8
1
  6
Continuous
 62
   155
370
    70
100
AcDbLine
 10
843.2878268675819
 20
380.8707039124334
 30
0.0
 11
842.9449148675818
 21
380.5277919124335
 31
0.0
  0
LINE
  5
82B
330
B6B
100
AcDbEntity
  8
1
  6
Continuous
 62
   155
370
    70
100
AcDbLine
 10
843.2878268675819
 20
386.5489539124335
 30
0.0
 11
843.2878268675819
 21
380.8707039124334
 31
0.0
  0
LINE
  5
82C
330
B6B
100
AcDbEntity
  8
1
  6
Continuous
 62
   155
370
    70
100
AcDbLine
 10
841.2778268675819
 20
369.1966589124335
 30
0.0
 11
841.2778268675819
 21
371.0996299124334
 31
0.0
  0
LINE
  5
82D
330
B6B
100
AcDbEntity
  8
1
  6
Continuous
 62
   155
370
    70
100
AcDbLine
 10
841.2778268675819
 20
369.1966589124335
 30
0.0
 11
841.4832388675819
 21
369.1624539124335
 31
0.0
  0
LINE
  5
82E
330
B6B
100
AcDbEntity
  8
1
  6
Continuous
 62
   155
370
    70
100
AcDbLine
 10
841.2778268675819
 20
371.0996299124334
 30
0.0
 11
841.4832388675819
 21
370.7567179124335
 31
0.0
  0
LINE
  5
82F
330
B6B
100
AcDbEntity
  8
1
  6
Continuous
 62
   155
370
    35
100
AcDbLine
 10
841.8843578675819
 20
391.4719289124334
 30
0.0
 11
841.9809928675819
 21
391.3752949124334
 31
0.0
  0
LINE
  5
830
330
B6B
100
AcDbEntity
  8
1
  6
Continuous
 62
   155
370
    70
100
AcDbLine
 10
842.9449148675818
 20
380.5277919124335
 30
0.0
 11
842.9449148675818
 21
386.8918659124334
 31
0.0
  0
LINE
  5
831
330
B6B
100
AcDbEntity
  8
1
  6
Continuous
 62
   155
370
    70
100
AcDbLine
 10
841.4788638675818
 20
379.0617039124335
 30
0.0
 11
841.4788638675818
 21
390.8731659124335
 31
0.0
  0
LINE
  5
832
330
B6B
100
AcDbEntity
  8
1
  6
Continuous
 62
   155
370
    70
100
AcDbLine
 10
841.4832388675819
 20
369.1624539124335
 30
0.0
 11
841.4832388675819
 21
370.7567179124335
 31
0.0
  0
ELLIPSE
  5
833
330
B6B
100
AcDbEntity
  8
1
  6
Continuous
 62
   155
370
    70
100
AcDbEllipse
 10
841.8851008675819
 20
390.9690579124335
 30
0.0
 11
-0.3558463923599882
 21
0.3558463923599987
 31
0.0
210
0.0
220
0.0
230
1.0
 40
0.998524
 41
5.498525696487945
 42
7.067844917871193
  0
ELLIPSE
  5
834
330
B6B
100
AcDbEntity
  8
1
  6
Continuous
 62
   155
370
    70
100
AcDbEllipse
 10
841.9817358675818
 20
390.8724229124335
 30
0.0
 11
-0.3558463923599882
 21
0.3558463923599987
 31
0.0
210
0.0
220
0.0
230
1.0
 40
0.998524
 41
5.498525696487945
 42
7.067844917871494
  0
LINE
  5
835
330
B6B
100
AcDbEntity
  8
1
  6
CENTER
 62
    18
370
    35
100
AcDbLine
 10
858.2874518675818
 20
365.9864539124335
 30
0.0
 11
858.2874518675818
 21
381.9864539124335
 31
0.0
  0
LINE
  5
836
330
B6B
100
AcDbEntity
  8
1
  6
Continuous
 62
   155
370
    70
100
AcDbLine
 10
866.4530768675819
 20
380.8707039124334
 30
0.0
 11
866.4530768675819
 21
386.5489539124335
 31
0.0
  0
LINE
  5
837
330
B6B
100
AcDbEntity
  8
1
  6
Continuous
 62
   155
370
    70
100
AcDbLine
 10
866.4530768675819
 20
386.5489539124335
 30
0.0
 11
866.7959888675819
 21
386.8918659124334
 31
0.0
  0
LINE
  5
838
330
B6B
100
AcDbEntity
  8
1
  6
Continuous
 62
   155
370
    70
100
AcDbLine
 10
866.7959888675819
 20
380.5277919124335
 30
0.0
 11
866.4530768675819
 21
380.8707039124334
 31
0.0
  0
LINE
  5
839
330
B6B
100
AcDbEntity
  8
1
  6
Continuous
 62
   155
370
    70
100
AcDbLine
 10
868.7303778675819
 20
394.2874539124335
 30
0.0
 11
868.7645828675819
 21
394.0820419124335
 31
0.0
  0
LINE
  5
83A
330
B6B
100
AcDbEntity
  8
1
  6
Continuous
 62
   155
370
    70
100
AcDbLine
 10
868.7303778675819
 20
394.2874539124335
 30
0.0
 11
866.4530768675819
 21
394.2874539124335
 31
0.0
  0
LINE
  5
83B
330
B6B
100
AcDbEntity
  8
1
  6
Continuous
 62
   155
370
    70
100
AcDbLine
 10
865.9505768675818
 20
378.4198429124335
 30
0.0
 11
866.6038268675819
 21
379.0617039124335
 31
0.0
  0
LINE
  5
83C
330
B6B
100
AcDbEntity
  8
1
  6
Continuous
 62
   155
370
    70
100
AcDbLine
 10
865.9505768675818
 20
378.4198429124335
 30
0.0
 11
865.9505768675818
 21
371.3985789124335
 31
0.0
  0
LINE
  5
83D
330
B6B
100
AcDbEntity
  8
1
  6
Continuous
 62
   155
370
    70
100
AcDbLine
 10
865.9505768675818
 20
371.3985789124335
 30
0.0
 11
866.6038268675819
 21
370.7567179124335
 31
0.0
  0
LINE
  5
83E
330
B6B
100
AcDbEntity
  8
1
  6
Continuous
 62
   155
370
    70
100
AcDbLine
 10
866.7959888675819
 20
380.5277919124335
 30
0.0
 11
866.7959888675819
 21
386.8918659124334
 31
0.0
  0
LINE
  5
83F
330
B6B
100
AcDbEntity
  8
1
  6
Continuous
 62
   155
370
    70
100
AcDbLine
 10
868.7645828675819
 20
371.1623779124334
 30
0.0
 11
868.7645828675819
 21
394.0820419124335
 31
0.0
  0
LINE
  5
840
330
B6B
100
AcDbEntity
  8
1
  6
Continuous
 62
   155
370
    70
100
AcDbLine
 10
866.6038268675819
 20
394.0820419124335
 30
0.0
 11
868.7645828675819
 21
394.0820419124335
 31
0.0
  0
LINE
  5
841
330
B6B
100
AcDbEntity
  8
1
  6
Continuous
 62
   155
370
    70
100
AcDbLine
 10
866.6038268675819
 20
370.7567179124335
 30
0.0
 11
866.6038268675819
 21
379.0617039124335
 31
0.0
  0
LINE
  5
842
330
B6B
100
AcDbEntity
  8
1
  6
Continuous
 62
   155
370
    70
100
AcDbLine
 10
866.4530768675819
 20
392.1754289124335
 30
0.0
 11
866.5071918675818
 21
391.4719289124334
 31
0.0
  0
LINE
  5
843
330
B6B
100
AcDbEntity
  8
1
  6
Continuous
 62
   155
370
    70
100
AcDbLine
 10
866.5071918675818
 20
391.4719289124334
 30
0.0
 11
866.6038268675819
 21
391.3752949124334
 31
0.0
  0
LINE
  5
844
330
B6B
100
AcDbEntity
  8
1
  6
Continuous
 62
   155
370
    70
100
AcDbLine
 10
866.6038268675819
 20
391.3752949124334
 30
0.0
 11
866.6038268675819
 21
394.0820419124335
 31
0.0
  0
LINE
  5
845
330
B6B
100
AcDbEntity
  8
1
  6
Continuous
 62
   155
370
    70
100
AcDbLine
 10
866.4530768675819
 20
394.2874539124335
 30
0.0
 11
866.6038268675819
 21
394.0820419124335
 31
0.0
  0
LINE
  5
846
330
B6B
100
AcDbEntity
  8
1
  6
Continuous
 62
   155
370
    70
100
AcDbLine
 10
866.4530768675819
 20
392.1754289124335
 30
0.0
 11
866.4530768675819
 21
394.2874539124335
 31
0.0
  0
CIRCLE
  5
847
330
B6B
100
AcDbEntity
  8
1
  6
Continuous
 62
   155
370
    70
100
AcDbCircle
 10
863.3878268675819
 20
384.0364539124334
 30
0.0
 40
1.3065
  0
ELLIPSE
  5
848
330
B6B
100
AcDbEntity
  8
1
  6
Continuous
 62
   155
370
    70
100
AcDbEllipse
 10
866.7645068675819
 20
371.1625299124335
 30
0.0
 11
-1.414321262261758
 21
1.4143212622618
 31
0.0
210
0.0
220
0.0
230
1.0
 40
0.999924
 41
2.3562325664033
 42
3.926952740776221
  0
LINE
  5
849
330
B6B
100
AcDbEntity
  8
1
  6
CENTER
 62
    18
370
    35
100
AcDbLine
 10
863.3878268675819
 20
376.0364539124334
 30
0.0
 11
863.3878268675819
 21
392.0364539124334
 31
0.0
  0
LINE
  5
84A
330
B6B
100
AcDbEntity
  8
1
  6
Continuous
 62
   155
370
    70
100
AcDbLine
 10
841.5776288675819
 20
427.2553189124335
 30
0.0
 11
866.4530768675819
 21
427.2553189124335
 31
0.0
  0
LINE
  5
84B
330
B6B
100
AcDbEntity
  8
1
  6
Continuous
 62
   155
370
    70
100
AcDbLine
 10
841.5776288675819
 20
456.3925889124334
 30
0.0
 11
866.4530768675819
 21
456.3925889124334
 31
0.0
  0
LINE
  5
84C
330
B6B
100
AcDbEntity
  8
1
  6
Continuous
 62
   155
370
    70
100
AcDbLine
 10
866.5071918675818
 20
427.9588189124335
 30
0.0
 11
841.8843578675819
 21
427.9588189124335
 31
0.0
  0
LINE
  5
84D
330
B6B
100
AcDbEntity
  8
1
  6
Continuous
 62
   155
370
    70
100
AcDbLine
 10
866.4530768675819
 20
432.8817949124335
 30
0.0
 11
843.2878268675819
 21
432.8817949124335
 31
0.0
  0
LINE
  5
84E
330
B6B
100
AcDbEntity
  8
1
  6
Continuous
 62
   155
370
    70
100
AcDbLine
 10
866.4530768675819
 20
450.7661129124335
 30
0.0
 11
843.2878268675819
 21
450.7661129124335
 31
0.0
  0
LINE
  5
84F
330
B6B
100
AcDbEntity
  8
1
  6
Continuous
 62
   155
370
    70
100
AcDbLine
 10
866.5071918675818
 20
455.6890889124335
 30
0.0
 11
841.8843578675819
 21
455.6890889124335
 31
0.0
  0
LINE
  5
850
330
B6B
100
AcDbEntity
  8
1
  6
Continuous
 62
   155
370
    70
100
AcDbLine
 10
866.6038268675819
 20
428.0554539124334
 30
0.0
 11
841.9809928675819
 21
428.0554539124334
 31
0.0
  0
LINE
  5
851
330
B6B
100
AcDbEntity
  8
1
  6
Continuous
 62
   155
370
    70
100
AcDbLine
 10
866.6038268675819
 20
455.5924539124335
 30
0.0
 11
841.9809928675819
 21
455.5924539124335
 31
0.0
  0
LINE
  5
852
330
B6B
100
AcDbEntity
  8
1
  6
Continuous
 62
   155
370
    70
100
AcDbLine
 10
866.7959888675819
 20
432.5388829124335
 30
0.0
 11
842.9449148675818
 21
432.5388829124335
 31
0.0
  0
LINE
  5
853
330
B6B
100
AcDbEntity
  8
1
  6
Continuous
 62
   155
370
    70
100
AcDbLine
 10
866.7959888675819
 20
451.1090249124335
 30
0.0
 11
842.9449148675818
 21
451.1090249124335
 31
0.0
  0
LINE
  5
854
330
B6B
100
AcDbEntity
  8
1
  6
Continuous
 62
   155
370
    70
100
AcDbLine
 10
843.2878268675819
 20
432.8817949124335
 30
0.0
 11
843.2878268675819
 21
450.7661129124335
 31
0.0
  0
LINE
  5
855
330
B6B
100
AcDbEntity
  8
1
  6
Continuous
 62
   155
370
    70
100
AcDbLine
 10
842.9449148675818
 20
451.1090249124335
 30
0.0
 11
842.9449148675818
 21
432.5388829124335
 31
0.0
  0
LINE
  5
856
330
B6B
100
AcDbEntity
  8
1
  6
Continuous
 62
   155
370
    70
100
AcDbLine
 10
841.4788638675818
 20
455.0903249124335
 30
0.0
 11
841.4788638675818
 21
428.5575829124335
 31
0.0
  0
LINE
  5
857
330
B6B
100
AcDbEntity
  8
1
  6
Continuous
 62
   155
370
    70
100
AcDbLine
 10
841.3281138675818
 20
452.7783349124335
 30
0.0
 11
841.3281138675818
 21
430.8695729124335
 31
0.0
  0
LINE
  5
858
330
B6B
100
AcDbEntity
  8
1
  6
Continuous
 62
   155
370
    70
100
AcDbLine
 10
841.3281138675818
 20
430.8695729124335
 30
0.0
 11
840.6787298675819
 21
430.8695729124335
 31
0.0
  0
LINE
  5
859
330
B6B
100
AcDbEntity
  8
1
  6
Continuous
 62
   155
370
    70
100
AcDbLine
 10
850.0213268675818
 20
412.1262039124335
 30
0.0
 11
827.0068268675818
 21
412.1262039124335
 31
0.0
  0
LINE
  5
85A
330
B6B
100
AcDbEntity
  8
1
  6
Continuous
 62
   155
370
    70
100
AcDbLine
 10
846.7048268675819
 20
412.0257039124335
 30
0.0
 11
827.1073268675818
 21
412.0257039124335
 31
0.0
  0
LINE
  5
85B
330
B6B
100
AcDbEntity
  8
1
  6
Continuous
 62
   155
370
    70
100
AcDbLine
 10
846.7048268675819
 20
407.3524539124335
 30
0.0
 11
827.1073268675818
 21
407.3524539124335
 31
0.0
  0
LINE
  5
85C
330
B6B
100
AcDbEntity
  8
1
  6
Continuous
 62
   155
370
    70
100
AcDbLine
 10
850.0213268675818
 20
407.2519539124335
 30
0.0
 11
827.0068268675818
 21
407.2519539124335
 31
0.0
  0
ELLIPSE
  5
85D
330
B6B
100
AcDbEntity
  8
1
  6
Continuous
 62
   155
370
    70
100
AcDbEllipse
 10
841.8023538675818
 20
428.3789439124334
 30
0.0
 11
-0.8703555308033528
 21
-0.8703555308033786
 31
0.0
210
0.0
220
0.0
230
1.0
 40
0.8164969999999999
 41
5.598466104177318
 42
6.967904510181822
  0
LINE
  5
85E
330
B6B
100
AcDbEntity
  8
1
  6
Continuous
 62
   155
370
    70
100
AcDbLine
 10
840.6787298675819
 20
430.8695729124335
 30
0.0
 11
840.6787298675819
 21
428.1542189124335
 31
0.0
  0
LINE
  5
85F
330
B6B
100
AcDbEntity
  8
1
  6
Continuous
 62
   155
370
    70
100
AcDbLine
 10
827.0068268675818
 20
407.2519539124335
 30
0.0
 11
827.0068268675818
 21
412.1262039124335
 31
0.0
  0
LINE
  5
860
330
B6B
100
AcDbEntity
  8
1
  6
Continuous
 62
   155
370
    70
100
AcDbLine
 10
827.0068268675818
 20
407.2519539124335
 30
0.0
 11
827.1073268675818
 21
407.3524539124335
 31
0.0
  0
LINE
  5
861
330
B6B
100
AcDbEntity
  8
1
  6
Continuous
 62
   155
370
    70
100
AcDbLine
 10
827.1073268675818
 20
407.3524539124335
 30
0.0
 11
827.1073268675818
 21
412.0257039124335
 31
0.0
  0
LINE
  5
862
330
B6B
100
AcDbEntity
  8
1
  6
Continuous
 62
   155
370
    70
100
AcDbLine
 10
827.0068268675818
 20
412.1262039124335
 30
0.0
 11
827.1073268675818
 21
412.0257039124335
 31
0.0
  0
LINE
  5
863
330
B6B
100
AcDbEntity
  8
1
  6
Continuous
 62
   155
370
    70
100
AcDbLine
 10
852.8353268675819
 20
407.2519539124335
 30
0.0
 11
852.8353268675819
 21
412.1262039124335
 31
0.0
  0
LINE
  5
864
330
B6B
100
AcDbEntity
  8
1
  6
Continuous
 62
   155
370
    70
100
AcDbLine
 10
852.7348268675819
 20
407.3524539124335
 30
0.0
 11
852.7348268675819
 21
412.0257039124335
 31
0.0
  0
LINE
  5
865
330
B6B
100
AcDbEntity
  8
1
  6
Continuous
 62
   155
370
    70
100
AcDbLine
 10
850.1218268675818
 20
407.3524539124335
 30
0.0
 11
850.1218268675818
 21
412.0257039124335
 31
0.0
  0
LINE
  5
866
330
B6B
100
AcDbEntity
  8
1
  6
Continuous
 62
   155
370
    70
100
AcDbLine
 10
850.0213268675818
 20
412.1262039124335
 30
0.0
 11
850.1218268675818
 21
412.0257039124335
 31
0.0
  0
LINE
  5
867
330
B6B
100
AcDbEntity
  8
1
  6
Continuous
 62
   155
370
    70
100
AcDbLine
 10
852.7348268675819
 20
412.0257039124335
 30
0.0
 11
850.1218268675818
 21
412.0257039124335
 31
0.0
  0
LINE
  5
868
330
B6B
100
AcDbEntity
  8
1
  6
Continuous
 62
   155
370
    70
100
AcDbLine
 10
852.8353268675819
 20
412.1262039124335
 30
0.0
 11
852.7348268675819
 21
412.0257039124335
 31
0.0
  0
LINE
  5
869
330
B6B
100
AcDbEntity
  8
1
  6
Continuous
 62
   155
370
    70
100
AcDbLine
 10
852.8353268675819
 20
412.1262039124335
 30
0.0
 11
850.0213268675818
 21
412.1262039124335
 31
0.0
  0
LINE
  5
86A
330
B6B
100
AcDbEntity
  8
1
  6
Continuous
 62
   155
370
    70
100
AcDbLine
 10
852.8353268675819
 20
407.2519539124335
 30
0.0
 11
850.0213268675818
 21
407.2519539124335
 31
0.0
  0
LINE
  5
86B
330
B6B
100
AcDbEntity
  8
1
  6
Continuous
 62
   155
370
    70
100
AcDbLine
 10
852.8353268675819
 20
407.2519539124335
 30
0.0
 11
852.7348268675819
 21
407.3524539124335
 31
0.0
  0
LINE
  5
86C
330
B6B
100
AcDbEntity
  8
1
  6
Continuous
 62
   155
370
    70
100
AcDbLine
 10
852.7348268675819
 20
407.3524539124335
 30
0.0
 11
850.1218268675818
 21
407.3524539124335
 31
0.0
  0
LINE
  5
86D
330
B6B
100
AcDbEntity
  8
1
  6
Continuous
 62
   155
370
    70
100
AcDbLine
 10
850.0213268675818
 20
407.2519539124335
 30
0.0
 11
850.1218268675818
 21
407.3524539124335
 31
0.0
  0
LINE
  5
86E
330
B6B
100
AcDbEntity
  8
1
  6
Continuous
 62
   155
370
    70
100
AcDbLine
 10
850.0213268675818
 20
412.1262039124335
 30
0.0
 11
846.7048268675819
 21
412.0257039124335
 31
0.0
  0
LINE
  5
86F
330
B6B
100
AcDbEntity
  8
1
  6
Continuous
 62
   155
370
    70
100
AcDbLine
 10
846.7048268675819
 20
407.3524539124335
 30
0.0
 11
846.7048268675819
 21
412.0257039124335
 31
0.0
  0
LINE
  5
870
330
B6B
100
AcDbEntity
  8
1
  6
Continuous
 62
   155
370
    70
100
AcDbLine
 10
850.0213268675818
 20
407.2519539124335
 30
0.0
 11
846.7048268675819
 21
407.3524539124335
 31
0.0
  0
LINE
  5
871
330
B6B
100
AcDbEntity
  8
1
  6
Continuous
 62
   155
370
    70
100
AcDbLine
 10
850.0213268675818
 20
407.2519539124335
 30
0.0
 11
850.0213268675818
 21
412.1262039124335
 31
0.0
  0
LINE
  5
872
330
B6B
100
AcDbEntity
  8
1
  6
Continuous
 62
   155
370
    35
100
AcDbLine
 10
841.9809928675819
 20
428.0554539124334
 30
0.0
 11
841.8843578675819
 21
427.9588189124335
 31
0.0
  0
LINE
  5
873
330
B6B
100
AcDbEntity
  8
1
  6
Continuous
 62
   155
370
    70
100
AcDbLine
 10
843.2878268675819
 20
432.8817949124335
 30
0.0
 11
842.9449148675818
 21
432.5388829124335
 31
0.0
  0
LINE
  5
874
330
B6B
100
AcDbEntity
  8
1
  6
Continuous
 62
   155
370
    70
100
AcDbLine
 10
841.3822298675818
 20
430.8155209124334
 30
0.0
 11
841.3822298675818
 21
428.4609479124335
 31
0.0
  0
LINE
  5
875
330
B6B
100
AcDbEntity
  8
1
  6
Continuous
 62
   155
370
    35
100
AcDbLine
 10
841.3822298675818
 20
428.4609479124335
 30
0.0
 11
841.4788638675818
 21
428.5575829124335
 31
0.0
  0
LINE
  5
876
330
B6B
100
AcDbEntity
  8
1
  6
Continuous
 62
   155
370
    70
100
AcDbLine
 10
841.3822298675818
 20
430.8155209124334
 30
0.0
 11
841.3281138675818
 21
430.8695729124335
 31
0.0
  0
ELLIPSE
  5
877
330
B6B
100
AcDbEntity
  8
1
  6
Continuous
 62
   155
370
    70
100
AcDbEllipse
 10
841.8851008675819
 20
428.4616909124335
 30
0.0
 11
0.3558463923599877
 21
0.3558463923599992
 31
0.0
210
0.0
220
0.0
230
1.0
 40
0.998524
 41
2.356933042898184
 42
3.926252264281433
  0
ELLIPSE
  5
878
330
B6B
100
AcDbEntity
  8
1
  6
Continuous
 62
   155
370
    70
100
AcDbEllipse
 10
841.9817358675818
 20
428.5583259124335
 30
0.0
 11
0.3558463923599877
 21
0.3558463923599992
 31
0.0
210
0.0
220
0.0
230
1.0
 40
0.998524
 41
2.356933042898184
 42
3.926252264281433
  0
LINE
  5
879
330
B6B
100
AcDbEntity
  8
1
  6
Continuous
 62
   155
370
    70
100
AcDbLine
 10
841.3281138675818
 20
452.7783349124335
 30
0.0
 11
840.6787298675819
 21
452.7783349124335
 31
0.0
  0
LINE
  5
87A
330
B6B
100
AcDbEntity
  8
1
  6
Continuous
 62
   155
370
    70
100
AcDbLine
 10
840.6787298675819
 20
452.7783349124335
 30
0.0
 11
840.6787298675819
 21
455.4936889124335
 31
0.0
  0
LINE
  5
87B
330
B6B
100
AcDbEntity
  8
1
  6
Continuous
 62
   155
370
    70
100
AcDbLine
 10
850.0213268675818
 20
471.5217039124335
 30
0.0
 11
850.1218268675818
 21
471.6222039124335
 31
0.0
  0
LINE
  5
87C
330
B6B
100
AcDbEntity
  8
1
  6
Continuous
 62
   155
370
    70
100
AcDbLine
 10
852.8353268675819
 20
471.5217039124335
 30
0.0
 11
850.0213268675818
 21
471.5217039124335
 31
0.0
  0
LINE
  5
87D
330
B6B
100
AcDbEntity
  8
1
  6
Continuous
 62
   155
370
    70
100
AcDbLine
 10
852.7348268675819
 20
471.6222039124335
 30
0.0
 11
850.1218268675818
 21
471.6222039124335
 31
0.0
  0
LINE
  5
87E
330
B6B
100
AcDbEntity
  8
1
  6
Continuous
 62
   155
370
    70
100
AcDbLine
 10
852.8353268675819
 20
471.5217039124335
 30
0.0
 11
852.7348268675819
 21
471.6222039124335
 31
0.0
  0
LINE
  5
87F
330
B6B
100
AcDbEntity
  8
1
  6
Continuous
 62
   155
370
    70
100
AcDbLine
 10
850.0213268675818
 20
471.5217039124335
 30
0.0
 11
827.0068268675818
 21
471.5217039124335
 31
0.0
  0
LINE
  5
880
330
B6B
100
AcDbEntity
  8
1
  6
Continuous
 62
   155
370
    70
100
AcDbLine
 10
850.0213268675818
 20
471.5217039124335
 30
0.0
 11
846.7048268675819
 21
471.6222039124335
 31
0.0
  0
LINE
  5
881
330
B6B
100
AcDbEntity
  8
1
  6
Continuous
 62
   155
370
    70
100
AcDbLine
 10
846.7048268675819
 20
471.6222039124335
 30
0.0
 11
827.1073268675818
 21
471.6222039124335
 31
0.0
  0
LINE
  5
882
330
B6B
100
AcDbEntity
  8
1
  6
Continuous
 62
   155
370
    70
100
AcDbLine
 10
827.0068268675818
 20
471.5217039124335
 30
0.0
 11
827.1073268675818
 21
471.6222039124335
 31
0.0
  0
LINE
  5
883
330
B6B
100
AcDbEntity
  8
1
  6
Continuous
 62
   155
370
    35
100
AcDbLine
 10
841.8843578675819
 20
455.6890889124335
 30
0.0
 11
841.9809928675819
 21
455.5924539124335
 31
0.0
  0
LINE
  5
884
330
B6B
100
AcDbEntity
  8
1
  6
Continuous
 62
   155
370
    70
100
AcDbLine
 10
843.2878268675819
 20
450.7661129124335
 30
0.0
 11
842.9449148675818
 21
451.1090249124335
 31
0.0
  0
LINE
  5
885
330
B6B
100
AcDbEntity
  8
1
  6
Continuous
 62
   155
370
    35
100
AcDbLine
 10
841.4788638675818
 20
455.0903249124335
 30
0.0
 11
841.3822298675818
 21
455.1869599124335
 31
0.0
  0
LINE
  5
886
330
B6B
100
AcDbEntity
  8
1
  6
Continuous
 62
   155
370
    70
100
AcDbLine
 10
841.3822298675818
 20
452.8323869124335
 30
0.0
 11
841.3822298675818
 21
455.1869599124335
 31
0.0
  0
LINE
  5
887
330
B6B
100
AcDbEntity
  8
1
  6
Continuous
 62
   155
370
    70
100
AcDbLine
 10
841.3822298675818
 20
452.8323869124335
 30
0.0
 11
841.3281138675818
 21
452.7783349124335
 31
0.0
  0
ELLIPSE
  5
888
330
B6B
100
AcDbEntity
  8
1
  6
Continuous
 62
   155
370
    70
100
AcDbEllipse
 10
841.8023538675818
 20
455.2689639124335
 30
0.0
 11
-0.8703555308033529
 21
0.8703555308033788
 31
0.0
210
0.0
220
0.0
230
1.0
 40
0.816497
 41
5.59846610417735
 42
6.967904510181853
  0
ELLIPSE
  5
889
330
B6B
100
AcDbEntity
  8
1
  6
Continuous
 62
   155
370
    70
100
AcDbEllipse
 10
841.8851008675819
 20
455.1862169124335
 30
0.0
 11
0.3558463923599884
 21
-0.35584639236
 31
0.0
210
0.0
220
0.0
230
1.0
 40
0.998524
 41
2.356933042898153
 42
3.926252264281402
  0
ELLIPSE
  5
88A
330
B6B
100
AcDbEntity
  8
1
  6
Continuous
 62
   155
370
    70
100
AcDbEllipse
 10
841.9817358675818
 20
455.0895819124335
 30
0.0
 11
0.3558463923599884
 21
-0.35584639236
 31
0.0
210
0.0
220
0.0
230
1.0
 40
0.998524
 41
2.356933042898153
 42
3.926252264281402
  0
LINE
  5
88B
330
B6B
100
AcDbEntity
  8
1
  6
Continuous
 62
   155
370
    70
100
AcDbLine
 10
866.4530768675819
 20
450.7661129124335
 30
0.0
 11
866.4530768675819
 21
432.8817949124335
 31
0.0
  0
LINE
  5
88C
330
B6B
100
AcDbEntity
  8
1
  6
Continuous
 62
   155
370
    70
100
AcDbLine
 10
868.7645828675819
 20
458.3015419124335
 30
0.0
 11
868.7645828675819
 21
425.3463659124334
 31
0.0
  0
LINE
  5
88D
330
B6B
100
AcDbEntity
  8
1
  6
Continuous
 62
   155
370
    70
100
AcDbLine
 10
866.7959888675819
 20
451.1090249124335
 30
0.0
 11
866.7959888675819
 21
432.5388829124335
 31
0.0
  0
LINE
  5
88E
330
B6B
100
AcDbEntity
  8
1
  6
Continuous
 62
   155
370
    70
100
AcDbLine
 10
866.5071918675818
 20
427.9588189124335
 30
0.0
 11
866.6038268675819
 21
428.0554539124334
 31
0.0
  0
LINE
  5
88F
330
B6B
100
AcDbEntity
  8
1
  6
Continuous
 62
   155
370
    70
100
AcDbLine
 10
866.5071918675818
 20
427.9588189124335
 30
0.0
 11
866.4530768675819
 21
427.2553189124335
 31
0.0
  0
LINE
  5
890
330
B6B
100
AcDbEntity
  8
1
  6
Continuous
 62
   155
370
    70
100
AcDbLine
 10
866.4530768675819
 20
425.1409539124335
 30
0.0
 11
866.4530768675819
 21
427.2553189124335
 31
0.0
  0
LINE
  5
891
330
B6B
100
AcDbEntity
  8
1
  6
Continuous
 62
   155
370
    70
100
AcDbLine
 10
868.7303778675819
 20
425.1409539124335
 30
0.0
 11
868.7645828675819
 21
425.3463659124334
 31
0.0
  0
LINE
  5
892
330
B6B
100
AcDbEntity
  8
1
  6
Continuous
 62
   155
370
    70
100
AcDbLine
 10
866.4530768675819
 20
425.1409539124335
 30
0.0
 11
866.6038268675819
 21
425.3463659124334
 31
0.0
  0
LINE
  5
893
330
B6B
100
AcDbEntity
  8
1
  6
Continuous
 62
   155
370
    70
100
AcDbLine
 10
868.7303778675819
 20
425.1409539124335
 30
0.0
 11
866.4530768675819
 21
425.1409539124335
 31
0.0
  0
LINE
  5
894
330
B6B
100
AcDbEntity
  8
1
  6
Continuous
 62
   155
370
    70
100
AcDbLine
 10
866.4530768675819
 20
432.8817949124335
 30
0.0
 11
866.7959888675819
 21
432.5388829124335
 31
0.0
  0
LINE
  5
895
330
B6B
100
AcDbEntity
  8
1
  6
Continuous
 62
   155
370
    70
100
AcDbLine
 10
866.6038268675819
 20
425.3463659124334
 30
0.0
 11
866.6038268675819
 21
428.0554539124334
 31
0.0
  0
LINE
  5
896
330
B6B
100
AcDbEntity
  8
1
  6
Continuous
 62
   155
370
    70
100
AcDbLine
 10
866.6038268675819
 20
425.3463659124334
 30
0.0
 11
868.7645828675819
 21
425.3463659124334
 31
0.0
  0
LINE
  5
897
330
B6B
100
AcDbEntity
  8
1
  6
Continuous
 62
   155
370
    70
100
AcDbLine
 10
868.7303778675819
 20
458.5069539124335
 30
0.0
 11
868.7645828675819
 21
458.3015419124335
 31
0.0
  0
LINE
  5
898
330
B6B
100
AcDbEntity
  8
1
  6
Continuous
 62
   155
370
    70
100
AcDbLine
 10
868.7303778675819
 20
458.5069539124335
 30
0.0
 11
866.4530768675819
 21
458.5069539124335
 31
0.0
  0
LINE
  5
899
330
B6B
100
AcDbEntity
  8
1
  6
Continuous
 62
   155
370
    70
100
AcDbLine
 10
866.4530768675819
 20
450.7661129124335
 30
0.0
 11
866.7959888675819
 21
451.1090249124335
 31
0.0
  0
LINE
  5
89A
330
B6B
100
AcDbEntity
  8
1
  6
Continuous
 62
   155
370
    70
100
AcDbLine
 10
866.6038268675819
 20
458.3015419124335
 30
0.0
 11
868.7645828675819
 21
458.3015419124335
 31
0.0
  0
LINE
  5
89B
330
B6B
100
AcDbEntity
  8
1
  6
Continuous
 62
   155
370
    70
100
AcDbLine
 10
866.5071918675818
 20
455.6890889124335
 30
0.0
 11
866.4530768675819
 21
456.3925889124334
 31
0.0
  0
LINE
  5
89C
330
B6B
100
AcDbEntity
  8
1
  6
Continuous
 62
   155
370
    70
100
AcDbLine
 10
866.5071918675818
 20
455.6890889124335
 30
0.0
 11
866.6038268675819
 21
455.5924539124335
 31
0.0
  0
LINE
  5
89D
330
B6B
100
AcDbEntity
  8
1
  6
Continuous
 62
   155
370
    70
100
AcDbLine
 10
866.6038268675819
 20
458.3015419124335
 30
0.0
 11
866.6038268675819
 21
455.5924539124335
 31
0.0
  0
LINE
  5
89E
330
B6B
100
AcDbEntity
  8
1
  6
Continuous
 62
   155
370
    70
100
AcDbLine
 10
866.4530768675819
 20
458.5069539124335
 30
0.0
 11
866.6038268675819
 21
458.3015419124335
 31
0.0
  0
LINE
  5
89F
330
B6B
100
AcDbEntity
  8
1
  6
Continuous
 62
   155
370
    70
100
AcDbLine
 10
866.4530768675819
 20
458.5069539124335
 30
0.0
 11
866.4530768675819
 21
456.3925889124334
 31
0.0
  0
LINE
  5
8A0
330
B6B
100
AcDbEntity
  8
1
  6
Continuous
 62
   155
370
    70
100
AcDbLine
 10
965.8307898675819
 20
394.0822569124335
 30
0.0
 11
965.8307898675819
 21
425.3461089124335
 31
0.0
  0
LINE
  5
8A1
330
B6B
100
AcDbEntity
  8
1
  6
Continuous
 62
   155
370
    70
100
AcDbLine
 10
965.8307898675819
 20
369.1624539124335
 30
0.0
 11
965.8307898675819
 21
371.1623779124334
 31
0.0
  0
LINE
  5
8A2
330
B6B
100
AcDbEntity
  8
1
  6
Continuous
 62
   155
370
    70
100
AcDbLine
 10
965.8307898675819
 20
458.3015419124335
 30
0.0
 11
965.8307898675819
 21
425.3463659124334
 31
0.0
  0
LINE
  5
8A3
330
B6B
100
AcDbEntity
  8
1
  6
Continuous
 62
   155
370
    70
100
AcDbLine
 10
965.8307898675819
 20
371.1623779124334
 30
0.0
 11
965.8307898675819
 21
394.0820419124335
 31
0.0
  0
LINE
  5
8A4
330
B6B
100
AcDbEntity
  8
1
  6
Continuous
 62
   155
370
    70
100
AcDbLine
 10
841.5776288675819
 20
491.4724789124335
 30
0.0
 11
866.4530768675819
 21
491.4724789124335
 31
0.0
  0
LINE
  5
8A5
330
B6B
100
AcDbEntity
  8
1
  6
Continuous
 62
   155
370
    70
100
AcDbLine
 10
866.4530768675819
 20
497.0989539124334
 30
0.0
 11
843.2878268675819
 21
497.0989539124334
 31
0.0
  0
LINE
  5
8A6
330
B6B
100
AcDbEntity
  8
1
  6
Continuous
 62
   155
370
    70
100
AcDbLine
 10
866.4530768675819
 20
502.7772039124335
 30
0.0
 11
843.2878268675819
 21
502.7772039124335
 31
0.0
  0
LINE
  5
8A7
330
B6B
100
AcDbEntity
  8
1
  6
Continuous
 62
   155
370
    70
100
AcDbLine
 10
866.5071918675818
 20
492.1759789124335
 30
0.0
 11
841.8843578675819
 21
492.1759789124335
 31
0.0
  0
LINE
  5
8A8
330
B6B
100
AcDbEntity
  8
1
  6
Continuous
 62
   155
370
    70
100
AcDbLine
 10
866.7959888675819
 20
496.7560419124335
 30
0.0
 11
842.9449148675818
 21
496.7560419124335
 31
0.0
  0
LINE
  5
8A9
330
B6B
100
AcDbEntity
  8
1
  6
Continuous
 62
   155
370
    70
100
AcDbLine
 10
842.9449148675818
 20
503.1201159124334
 30
0.0
 11
866.7959888675819
 21
503.1201159124334
 31
0.0
  0
LINE
  5
8AA
330
B6B
100
AcDbEntity
  8
1
  6
Continuous
 62
   155
370
    70
100
AcDbLine
 10
866.7646588675818
 20
514.4854539124335
 30
0.0
 11
841.4832388675819
 21
514.4854539124335
 31
0.0
  0
LINE
  5
8AB
330
B6B
100
AcDbEntity
  8
1
  6
Continuous
 62
   155
370
    70
100
AcDbLine
 10
841.4832388675819
 20
512.8911899124334
 30
0.0
 11
866.6038268675819
 21
512.8911899124334
 31
0.0
  0
LINE
  5
8AC
330
B6B
100
AcDbEntity
  8
1
  6
Continuous
 62
   155
370
    70
100
AcDbLine
 10
841.4788638675818
 20
504.5862039124335
 30
0.0
 11
866.6038268675819
 21
504.5862039124335
 31
0.0
  0
LINE
  5
8AD
330
B6B
100
AcDbEntity
  8
1
  6
Continuous
 62
   155
370
    70
100
AcDbLine
 10
866.6038268675819
 20
492.2726129124335
 30
0.0
 11
841.9809928675819
 21
492.2726129124335
 31
0.0
  0
CIRCLE
  5
8AE
330
B6B
100
AcDbEntity
  8
1
  6
Continuous
 62
   155
370
    70
100
AcDbCircle
 10
858.2874518675818
 20
509.6614539124334
 30
0.0
 40
2.26125
  0
LINE
  5
8AF
330
B6B
100
AcDbEntity
  8
1
  6
CENTER
 62
    18
370
    35
100
AcDbLine
 10
850.2874518675818
 20
509.6614539124334
 30
0.0
 11
866.2874518675818
 21
509.6614539124334
 31
0.0
  0
LINE
  5
8B0
330
B6B
100
AcDbEntity
  8
1
  6
CENTER
 62
    18
370
    35
100
AcDbLine
 10
855.3878268675819
 20
499.6114539124335
 30
0.0
 11
871.3878268675819
 21
499.6114539124335
 31
0.0
  0
LINE
  5
8B1
330
B6B
100
AcDbEntity
  8
1
  6
CENTER
 62
    18
370
    35
100
AcDbLine
 10
858.2874518675818
 20
501.6614539124334
 30
0.0
 11
858.2874518675818
 21
517.6614539124334
 31
0.0
  0
LINE
  5
8B2
330
B6B
100
AcDbEntity
  8
1
  6
Continuous
 62
   155
370
    70
100
AcDbLine
 10
840.6787298675819
 20
495.0890729124335
 30
0.0
 11
841.3281138675818
 21
495.0890729124335
 31
0.0
  0
LINE
  5
8B3
330
B6B
100
AcDbEntity
  8
1
  6
Continuous
 62
   155
370
    70
100
AcDbLine
 10
850.0213268675818
 20
476.3959539124335
 30
0.0
 11
827.0068268675818
 21
476.3959539124335
 31
0.0
  0
LINE
  5
8B4
330
B6B
100
AcDbEntity
  8
1
  6
Continuous
 62
   155
370
    70
100
AcDbLine
 10
846.7048268675819
 20
476.2954539124335
 30
0.0
 11
827.1073268675818
 21
476.2954539124335
 31
0.0
  0
ELLIPSE
  5
8B5
330
B6B
100
AcDbEntity
  8
1
  6
Continuous
 62
   155
370
    70
100
AcDbEllipse
 10
841.8023538675818
 20
492.5961029124335
 30
0.0
 11
0.8703555308033414
 21
0.8703555308033695
 31
0.0
210
0.0
220
0.0
230
1.0
 40
0.8164969999999999
 41
2.456873450587524
 42
3.826311856592028
  0
LINE
  5
8B6
330
B6B
100
AcDbEntity
  8
1
  6
Continuous
 62
   155
370
    70
100
AcDbLine
 10
840.6787298675819
 20
492.3713779124334
 30
0.0
 11
840.6787298675819
 21
495.0890729124335
 31
0.0
  0
LINE
  5
8B7
330
B6B
100
AcDbEntity
  8
1
  6
Continuous
 62
   155
370
    70
100
AcDbLine
 10
827.0068268675818
 20
476.3959539124335
 30
0.0
 11
827.1073268675818
 21
476.2954539124335
 31
0.0
  0
LINE
  5
8B8
330
B6B
100
AcDbEntity
  8
1
  6
Continuous
 62
   155
370
    70
100
AcDbLine
 10
852.8353268675819
 20
476.3959539124335
 30
0.0
 11
850.0213268675818
 21
476.3959539124335
 31
0.0
  0
LINE
  5
8B9
330
B6B
100
AcDbEntity
  8
1
  6
Continuous
 62
   155
370
    70
100
AcDbLine
 10
850.0213268675818
 20
476.3959539124335
 30
0.0
 11
850.1218268675818
 21
476.2954539124335
 31
0.0
  0
LINE
  5
8BA
330
B6B
100
AcDbEntity
  8
1
  6
Continuous
 62
   155
370
    70
100
AcDbLine
 10
852.7348268675819
 20
476.2954539124335
 30
0.0
 11
850.1218268675818
 21
476.2954539124335
 31
0.0
  0
LINE
  5
8BB
330
B6B
100
AcDbEntity
  8
1
  6
Continuous
 62
   155
370
    70
100
AcDbLine
 10
852.8353268675819
 20
476.3959539124335
 30
0.0
 11
852.7348268675819
 21
476.2954539124335
 31
0.0
  0
LINE
  5
8BC
330
B6B
100
AcDbEntity
  8
1
  6
Continuous
 62
   155
370
    70
100
AcDbLine
 10
850.0213268675818
 20
476.3959539124335
 30
0.0
 11
846.7048268675819
 21
476.2954539124335
 31
0.0
  0
LINE
  5
8BD
330
B6B
100
AcDbEntity
  8
1
  6
Continuous
 62
   155
370
    70
100
AcDbLine
 10
841.3822298675818
 20
492.6781069124335
 30
0.0
 11
841.3822298675818
 21
495.0350209124335
 31
0.0
  0
LINE
  5
8BE
330
B6B
100
AcDbEntity
  8
1
  6
Continuous
 62
   155
370
    70
100
AcDbLine
 10
841.3281138675818
 20
504.9291159124335
 30
0.0
 11
841.4788638675818
 21
504.5862039124335
 31
0.0
  0
LINE
  5
8BF
330
B6B
100
AcDbEntity
  8
1
  6
Continuous
 62
   155
370
    70
100
AcDbLine
 10
841.3281138675818
 20
504.9291159124335
 30
0.0
 11
841.3281138675818
 21
495.0890729124335
 31
0.0
  0
LINE
  5
8C0
330
B6B
100
AcDbEntity
  8
1
  6
Continuous
 62
   155
370
    70
100
AcDbLine
 10
841.3281138675818
 20
495.0890729124335
 30
0.0
 11
841.3822298675818
 21
495.0350209124335
 31
0.0
  0
LINE
  5
8C1
330
B6B
100
AcDbEntity
  8
1
  6
Continuous
 62
   155
370
    35
100
AcDbLine
 10
841.3822298675818
 20
492.6781069124335
 30
0.0
 11
841.4788638675818
 21
492.7747419124335
 31
0.0
  0
LINE
  5
8C2
330
B6B
100
AcDbEntity
  8
1
  6
Continuous
 62
   155
370
    70
100
AcDbLine
 10
843.2878268675819
 20
497.0989539124334
 30
0.0
 11
842.9449148675818
 21
496.7560419124335
 31
0.0
  0
LINE
  5
8C3
330
B6B
100
AcDbEntity
  8
1
  6
Continuous
 62
   155
370
    70
100
AcDbLine
 10
843.2878268675819
 20
497.0989539124334
 30
0.0
 11
843.2878268675819
 21
502.7772039124335
 31
0.0
  0
LINE
  5
8C4
330
B6B
100
AcDbEntity
  8
1
  6
Continuous
 62
   155
370
    70
100
AcDbLine
 10
843.2878268675819
 20
502.7772039124335
 30
0.0
 11
842.9449148675818
 21
503.1201159124334
 31
0.0
  0
LINE
  5
8C5
330
B6B
100
AcDbEntity
  8
1
  6
Continuous
 62
   155
370
    35
100
AcDbLine
 10
841.9809928675819
 20
492.2726129124335
 30
0.0
 11
841.8843578675819
 21
492.1759789124335
 31
0.0
  0
LINE
  5
8C6
330
B6B
100
AcDbEntity
  8
1
  6
Continuous
 62
   155
370
    70
100
AcDbLine
 10
842.9449148675818
 20
503.1201159124334
 30
0.0
 11
842.9449148675818
 21
496.7560419124335
 31
0.0
  0
LINE
  5
8C7
330
B6B
100
AcDbEntity
  8
1
  6
Continuous
 62
   155
370
    70
100
AcDbLine
 10
841.4788638675818
 20
504.5862039124335
 30
0.0
 11
841.4788638675818
 21
492.7747419124335
 31
0.0
  0
ELLIPSE
  5
8C8
330
B6B
100
AcDbEntity
  8
1
  6
Continuous
 62
   155
370
    70
100
AcDbEllipse
 10
841.8851008675819
 20
492.6788499124335
 30
0.0
 11
-0.3558463923599882
 21
-0.3558463923599987
 31
0.0
210
0.0
220
0.0
230
1.0
 40
0.998524
 41
5.498525696487979
 42
7.067844917871227
  0
ELLIPSE
  5
8C9
330
B6B
100
AcDbEntity
  8
1
  6
Continuous
 62
   155
370
    70
100
AcDbEllipse
 10
841.9817358675818
 20
492.7754849124335
 30
0.0
 11
-0.3558463923599882
 21
-0.3558463923599987
 31
0.0
210
0.0
220
0.0
230
1.0
 40
0.998524
 41
5.498525696487679
 42
7.067844917871227
  0
LINE
  5
8CA
330
B6B
100
AcDbEntity
  8
1
  6
Continuous
 62
   155
370
    70
100
AcDbLine
 10
841.2778268675819
 20
514.4512489124335
 30
0.0
 11
841.2778268675819
 21
512.5482779124335
 31
0.0
  0
LINE
  5
8CB
330
B6B
100
AcDbEntity
  8
1
  6
Continuous
 62
   155
370
    70
100
AcDbLine
 10
841.2778268675819
 20
512.5482779124335
 30
0.0
 11
841.4832388675819
 21
512.8911899124334
 31
0.0
  0
LINE
  5
8CC
330
B6B
100
AcDbEntity
  8
1
  6
Continuous
 62
   155
370
    70
100
AcDbLine
 10
841.2778268675819
 20
514.4512489124335
 30
0.0
 11
841.4832388675819
 21
514.4854539124335
 31
0.0
  0
LINE
  5
8CD
330
B6B
100
AcDbEntity
  8
1
  6
Continuous
 62
   155
370
    70
100
AcDbLine
 10
841.4832388675819
 20
514.4854539124335
 30
0.0
 11
841.4832388675819
 21
512.8911899124334
 31
0.0
  0
LINE
  5
8CE
330
B6B
100
AcDbEntity
  8
1
  6
Continuous
 62
   155
370
    70
100
AcDbLine
 10
865.9505768675818
 20
505.2280649124335
 30
0.0
 11
865.9505768675818
 21
512.2493289124334
 31
0.0
  0
LINE
  5
8CF
330
B6B
100
AcDbEntity
  8
1
  6
Continuous
 62
   155
370
    70
100
AcDbLine
 10
865.9505768675818
 20
505.2280649124335
 30
0.0
 11
866.6038268675819
 21
504.5862039124335
 31
0.0
  0
LINE
  5
8D0
330
B6B
100
AcDbEntity
  8
1
  6
Continuous
 62
   155
370
    70
100
AcDbLine
 10
868.7303778675819
 20
489.3604539124335
 30
0.0
 11
868.7645828675819
 21
489.5658659124335
 31
0.0
  0
LINE
  5
8D1
330
B6B
100
AcDbEntity
  8
1
  6
Continuous
 62
   155
370
    70
100
AcDbLine
 10
868.7303778675819
 20
489.3604539124335
 30
0.0
 11
866.4530768675819
 21
489.3604539124335
 31
0.0
  0
LINE
  5
8D2
330
B6B
100
AcDbEntity
  8
1
  6
Continuous
 62
   155
370
    70
100
AcDbLine
 10
866.4530768675819
 20
502.7772039124335
 30
0.0
 11
866.4530768675819
 21
497.0989539124334
 31
0.0
  0
LINE
  5
8D3
330
B6B
100
AcDbEntity
  8
1
  6
Continuous
 62
   155
370
    70
100
AcDbLine
 10
866.4530768675819
 20
497.0989539124334
 30
0.0
 11
866.7959888675819
 21
496.7560419124335
 31
0.0
  0
LINE
  5
8D4
330
B6B
100
AcDbEntity
  8
1
  6
Continuous
 62
   155
370
    70
100
AcDbLine
 10
865.9505768675818
 20
512.2493289124334
 30
0.0
 11
866.6038268675819
 21
512.8911899124334
 31
0.0
  0
LINE
  5
8D5
330
B6B
100
AcDbEntity
  8
1
  6
Continuous
 62
   155
370
    70
100
AcDbLine
 10
866.7959888675819
 20
503.1201159124334
 30
0.0
 11
866.4530768675819
 21
502.7772039124335
 31
0.0
  0
LINE
  5
8D6
330
B6B
100
AcDbEntity
  8
1
  6
Continuous
 62
   155
370
    70
100
AcDbLine
 10
866.7959888675819
 20
503.1201159124334
 30
0.0
 11
866.7959888675819
 21
496.7560419124335
 31
0.0
  0
LINE
  5
8D7
330
B6B
100
AcDbEntity
  8
1
  6
Continuous
 62
   155
370
    70
100
AcDbLine
 10
868.7645828675819
 20
512.4855299124335
 30
0.0
 11
868.7645828675819
 21
489.5658659124335
 31
0.0
  0
LINE
  5
8D8
330
B6B
100
AcDbEntity
  8
1
  6
Continuous
 62
   155
370
    70
100
AcDbLine
 10
866.6038268675819
 20
512.8911899124334
 30
0.0
 11
866.6038268675819
 21
504.5862039124335
 31
0.0
  0
LINE
  5
8D9
330
B6B
100
AcDbEntity
  8
1
  6
Continuous
 62
   155
370
    70
100
AcDbLine
 10
866.6038268675819
 20
489.5658659124335
 30
0.0
 11
868.7645828675819
 21
489.5658659124335
 31
0.0
  0
LINE
  5
8DA
330
B6B
100
AcDbEntity
  8
1
  6
Continuous
 62
   155
370
    70
100
AcDbLine
 10
866.5071918675818
 20
492.1759789124335
 30
0.0
 11
866.6038268675819
 21
492.2726129124335
 31
0.0
  0
LINE
  5
8DB
330
B6B
100
AcDbEntity
  8
1
  6
Continuous
 62
   155
370
    70
100
AcDbLine
 10
866.4530768675819
 20
491.4724789124335
 30
0.0
 11
866.5071918675818
 21
492.1759789124335
 31
0.0
  0
LINE
  5
8DC
330
B6B
100
AcDbEntity
  8
1
  6
Continuous
 62
   155
370
    70
100
AcDbLine
 10
866.4530768675819
 20
491.4724789124335
 30
0.0
 11
866.4530768675819
 21
489.3604539124335
 31
0.0
  0
LINE
  5
8DD
330
B6B
100
AcDbEntity
  8
1
  6
Continuous
 62
   155
370
    70
100
AcDbLine
 10
866.4530768675819
 20
489.3604539124335
 30
0.0
 11
866.6038268675819
 21
489.5658659124335
 31
0.0
  0
LINE
  5
8DE
330
B6B
100
AcDbEntity
  8
1
  6
Continuous
 62
   155
370
    70
100
AcDbLine
 10
866.6038268675819
 20
492.2726129124335
 30
0.0
 11
866.6038268675819
 21
489.5658659124335
 31
0.0
  0
CIRCLE
  5
8DF
330
B6B
100
AcDbEntity
  8
1
  6
Continuous
 62
   155
370
    70
100
AcDbCircle
 10
863.3878268675819
 20
499.6114539124335
 30
0.0
 40
1.3065
  0
ELLIPSE
  5
8E0
330
B6B
100
AcDbEntity
  8
1
  6
Continuous
 62
   155
370
    70
100
AcDbEllipse
 10
866.7645068675819
 20
512.4853779124335
 30
0.0
 11
-1.414321262261757
 21
-1.414321262261799
 31
0.0
210
0.0
220
0.0
230
1.0
 40
0.999924
 41
2.356232566403365
 42
3.926952740776286
  0
LINE
  5
8E1
330
B6B
100
AcDbEntity
  8
1
  6
CENTER
 62
    18
370
    35
100
AcDbLine
 10
863.3878268675819
 20
491.6114539124335
 30
0.0
 11
863.3878268675819
 21
507.6114539124335
 31
0.0
  0
LINE
  5
8E2
330
B6B
100
AcDbEntity
  8
1
  6
Continuous
 62
     8
370
    70
100
AcDbLine
 10
875.1145828675818
 20
608.2856209124335
 30
0.0
 11
875.1145828675818
 21
582.5206209124335
 31
0.0
  0
LINE
  5
8E3
330
B6B
100
AcDbEntity
  8
1
  6
Continuous
 62
   155
370
    70
100
AcDbLine
 10
868.6505658675819
 20
601.9356209124335
 30
0.0
 11
868.6812628675818
 21
598.4181209124334
 31
0.0
  0
LINE
  5
8E4
330
B6B
100
AcDbEntity
  8
1
  6
Continuous
 62
   155
370
    70
100
AcDbLine
 10
867.6506798675819
 20
601.9356209124335
 30
0.0
 11
868.6505658675819
 21
601.9356209124335
 31
0.0
  0
LINE
  5
8E5
330
B6B
100
AcDbEntity
  8
1
  6
Continuous
 62
   155
370
    35
100
AcDbLine
 10
867.6813768675819
 20
598.4181209124334
 30
0.0
 11
867.6506798675819
 21
601.9356209124335
 31
0.0
  0
LINE
  5
8E6
330
B6B
100
AcDbEntity
  8
1
  6
Continuous
 62
   155
370
    70
100
AcDbLine
 10
841.4788638675818
 20
588.8706209124334
 30
0.0
 11
841.4835748675819
 21
588.8706209124334
 31
0.0
  0
LINE
  5
8E7
330
B6B
100
AcDbEntity
  8
1
  6
Continuous
 62
   155
370
    70
100
AcDbLine
 10
841.4667968675818
 20
589.1843639124335
 30
0.0
 11
841.4788638675818
 21
588.8706209124334
 31
0.0
  0
LINE
  5
8E8
330
B6B
100
AcDbEntity
  8
1
  6
Continuous
 62
   155
370
    70
100
AcDbLine
 10
868.7645828675819
 20
588.8706209124334
 30
0.0
 11
866.7646588675818
 21
588.8706209124334
 31
0.0
  0
LINE
  5
8E9
330
B6B
100
AcDbEntity
  8
1
  6
Continuous
 62
   155
370
    70
100
AcDbLine
 10
868.6812628675818
 20
598.4181209124334
 30
0.0
 11
868.7645828675819
 21
588.8706209124334
 31
0.0
  0
LINE
  5
8EA
330
B6B
100
AcDbEntity
  8
1
  6
Continuous
 62
   155
370
    70
100
AcDbLine
 10
866.6813388675819
 20
598.4181209124334
 30
0.0
 11
868.6812628675818
 21
598.4181209124334
 31
0.0
  0
LINE
  5
8EB
330
B6B
100
AcDbEntity
  8
1
  6
Continuous
 62
   155
370
    70
100
AcDbLine
 10
866.7646588675818
 20
588.8706209124334
 30
0.0
 11
841.4832388675819
 21
588.8706209124334
 31
0.0
  0
LINE
  5
8EC
330
B6B
100
AcDbEntity
  8
1
  6
Continuous
 62
   155
370
    35
100
AcDbLine
 10
866.7646588675818
 20
588.8706209124334
 30
0.0
 11
866.6813388675819
 21
598.4181209124334
 31
0.0
  0
LINE
  5
8ED
330
B6B
100
AcDbEntity
  8
1
  6
Continuous
 62
   155
370
    70
100
AcDbLine
 10
841.2778268675819
 20
592.7901209124335
 30
0.0
 11
841.4832388675819
 21
588.8706209124334
 31
0.0
  0
LINE
  5
8EE
330
B6B
100
AcDbEntity
  8
1
  6
Continuous
 62
   155
370
    70
100
AcDbLine
 10
965.8307898675819
 20
512.4855299124335
 30
0.0
 11
965.8307898675819
 21
514.4854539124335
 31
0.0
  0
LINE
  5
8EF
330
B6B
100
AcDbEntity
  8
1
  6
Continuous
 62
   155
370
    70
100
AcDbLine
 10
965.8307898675819
 20
512.4855299124335
 30
0.0
 11
965.8307898675819
 21
489.5658659124335
 31
0.0
  0
LINE
  5
8F0
330
B6B
100
AcDbEntity
  8
1
  6
Continuous
 62
     8
370
    70
100
AcDbLine
 10
985.2457898675818
 20
520.8354539124334
 30
0.0
 11
985.2457898675818
 21
362.8124539124335
 31
0.0
  0
LINE
  5
8F1
330
B6B
100
AcDbEntity
  8
1
  6
Continuous
 62
     8
370
    70
100
AcDbLine
 10
1069.061533867582
 20
362.8124539124335
 30
0.0
 11
1069.061533867582
 21
520.8354539124334
 31
0.0
  0
LINE
  5
8F2
330
B6B
100
AcDbEntity
  8
1
  6
Continuous
 62
   155
370
    70
100
AcDbLine
 10
967.5392898675818
 20
489.4759989124335
 30
0.0
 11
967.5392898675818
 21
458.3914069124335
 31
0.0
  0
LINE
  5
8F3
330
B6B
100
AcDbEntity
  8
1
  6
Continuous
 62
   155
370
    70
100
AcDbLine
 10
969.7502898675818
 20
489.3604539124335
 30
0.0
 11
969.7502898675818
 21
458.5069539124335
 31
0.0
  0
LINE
  5
8F4
330
B6B
100
AcDbEntity
  8
1
  6
Continuous
 62
   155
370
    70
100
AcDbLine
 10
977.7902898675818
 20
495.5805109124335
 30
0.0
 11
977.7902898675818
 21
388.0673969124335
 31
0.0
  0
LINE
  5
8F5
330
B6B
100
AcDbEntity
  8
1
  6
Continuous
 62
   155
370
    70
100
AcDbLine
 10
1097.471289867582
 20
476.2954539124335
 30
0.0
 11
1097.471289867582
 21
471.6222039124335
 31
0.0
  0
LINE
  5
8F6
330
B6B
100
AcDbEntity
  8
1
  6
Continuous
 62
   155
370
    70
100
AcDbLine
 10
1094.054289867582
 20
476.2954539124335
 30
0.0
 11
1094.054289867582
 21
471.6222039124335
 31
0.0
  0
LINE
  5
8F7
330
B6B
100
AcDbEntity
  8
1
  6
Continuous
 62
   155
370
    70
100
AcDbLine
 10
1091.441289867582
 20
476.2954539124335
 30
0.0
 11
1091.441289867582
 21
471.6222039124335
 31
0.0
  0
LINE
  5
8F8
330
B6B
100
AcDbEntity
  8
1
  6
Continuous
 62
   155
370
    70
100
AcDbLine
 10
1076.744481867582
 20
495.5795269124335
 30
0.0
 11
1076.744481867582
 21
388.0683809124334
 31
0.0
  0
LINE
  5
8F9
330
B6B
100
AcDbEntity
  8
1
  6
Continuous
 62
   155
370
    70
100
AcDbLine
 10
1076.994958867582
 20
490.1659789124334
 30
0.0
 11
1076.994958867582
 21
457.6990889124335
 31
0.0
  0
LINE
  5
8FA
330
B6B
100
AcDbEntity
  8
1
  6
Continuous
 62
   155
370
    70
100
AcDbLine
 10
1075.445738867582
 20
489.3604539124335
 30
0.0
 11
1075.445738867582
 21
458.5069539124335
 31
0.0
  0
LINE
  5
8FB
330
B6B
100
AcDbEntity
  8
1
  6
Continuous
 62
   155
370
    70
100
AcDbLine
 10
1075.515902867582
 20
495.5805109124335
 30
0.0
 11
1075.515902867582
 21
388.0673969124335
 31
0.0
  0
DIMENSION
  5
8FC
330
B6B
100
AcDbEntity
  8
MiniCADViewLayer
 62
     3
370
    70
100
AcDbDimension
280
     0
 10
1080.788289867582
 20
387.6711879124335
 30
0.0
 11
1080.788289867582
 21
441.8239539124335
 31
0.0
 70
    32
  1
108.31
 71
     5
 42
-1.0
 73
     0
 74
     0
 75
     0
  3
QCADDimStyle
100
AcDbAlignedDimension
 13
1080.755978867582
 23
387.6711879124335
 33
0.0
 14
1080.755978867582
 24
495.9767199124335
 34
0.0
 50
90.0
100
AcDbRotatedDimension
  0
DIMENSION
  5
8FD
330
B6B
100
AcDbEntity
  8
MiniCADViewLayer
 62
     3
370
    70
100
AcDbDimension
280
     0
 10
1064.707598224562
 20
514.4021339124334
 30
0.0
 11
1064.707598224562
 21
441.8239539124335
 31
0.0
 70
    32
  1
145.16
 71
     5
 42
-1.0
 73
     0
 74
     0
 75
     0
  3
QCADDimStyle
100
AcDbAlignedDimension
 13
1077.494777867582
 23
514.4021339124334
 33
0.0
 14
1077.494777867582
 24
369.2457739124335
 34
0.0
 50
90.0
100
AcDbRotatedDimension
  0
LINE
  5
8FE
330
B6B
100
AcDbEntity
  8
1
  6
Continuous
 62
   155
370
    70
100
AcDbLine
 10
967.5392898675818
 20
394.1719089124335
 30
0.0
 11
967.5392898675818
 21
425.2565009124335
 31
0.0
  0
LINE
  5
8FF
330
B6B
100
AcDbEntity
  8
1
  6
Continuous
 62
   155
370
    70
100
AcDbLine
 10
978.8957898675818
 20
388.5124199124335
 30
0.0
 11
978.8957898675818
 21
388.0094599124334
 31
0.0
  0
LINE
  5
900
330
B6B
100
AcDbEntity
  8
1
  6
Continuous
 62
   155
370
    70
100
AcDbLine
 10
977.7902898675818
 20
388.5703569124335
 30
0.0
 11
978.8957898675818
 21
388.5124199124335
 31
0.0
  0
LINE
  5
901
330
B6B
100
AcDbEntity
  8
1
  6
Continuous
 62
   155
370
    70
100
AcDbLine
 10
978.8957898675818
 20
378.8607039124335
 30
0.0
 11
975.3782898675819
 21
378.7993059124335
 31
0.0
  0
LINE
  5
902
330
B6B
100
AcDbEntity
  8
1
  6
Continuous
 62
   155
370
    70
100
AcDbLine
 10
978.8957898675818
 20
379.8607039124335
 30
0.0
 11
978.8957898675818
 21
378.8607039124335
 31
0.0
  0
LINE
  5
903
330
B6B
100
AcDbEntity
  8
1
  6
Continuous
 62
   155
370
    70
100
AcDbLine
 10
975.3782898675819
 20
371.2456979124335
 30
0.0
 11
975.3782898675819
 21
369.2457739124335
 31
0.0
  0
LINE
  5
904
330
B6B
100
AcDbEntity
  8
1
  6
Continuous
 62
   155
370
    70
100
AcDbLine
 10
969.7502898675818
 20
394.2874539124335
 30
0.0
 11
969.7502898675818
 21
425.1409539124335
 31
0.0
  0
LINE
  5
905
330
B6B
100
AcDbEntity
  8
1
  6
Continuous
 62
   155
370
    70
100
AcDbLine
 10
975.3782898675819
 20
379.7993059124335
 30
0.0
 11
975.3782898675819
 21
371.2456979124335
 31
0.0
  0
LINE
  5
906
330
B6B
100
AcDbEntity
  8
1
  6
Continuous
 62
   155
370
    35
100
AcDbLine
 10
975.3782898675819
 20
379.7993059124335
 30
0.0
 11
978.8957898675818
 21
379.8607039124335
 31
0.0
  0
LINE
  5
907
330
B6B
100
AcDbEntity
  8
1
  6
Continuous
 62
   155
370
    70
100
AcDbLine
 10
978.8957898675818
 20
379.8607039124335
 30
0.0
 11
978.8957898675818
 21
388.0094599124334
 31
0.0
  0
LINE
  5
908
330
B6B
100
AcDbEntity
  8
1
  6
Continuous
 62
   155
370
    35
100
AcDbLine
 10
978.8957898675818
 20
388.0094599124334
 30
0.0
 11
977.7902898675818
 21
388.0673969124335
 31
0.0
  0
LINE
  5
909
330
B6B
100
AcDbEntity
  8
1
  6
Continuous
 62
   155
370
    70
100
AcDbLine
 10
1076.994958867582
 20
393.4819289124335
 30
0.0
 11
1076.994958867582
 21
425.9488189124335
 31
0.0
  0
LINE
  5
90A
330
B6B
100
AcDbEntity
  8
1
  6
Continuous
 62
   155
370
    70
100
AcDbLine
 10
1075.445738867582
 20
394.2874539124335
 30
0.0
 11
1075.445738867582
 21
425.1409539124335
 31
0.0
  0
LINE
  5
90B
330
B6B
100
AcDbEntity
  8
1
  6
CENTER
 62
    18
370
    35
100
AcDbLine
 10
1072.788289867582
 20
384.0364539124334
 30
0.0
 11
1088.788289867582
 21
384.0364539124334
 31
0.0
  0
LINE
  5
90C
330
B6B
100
AcDbEntity
  8
1
  6
Continuous
 62
   155
370
    70
100
AcDbLine
 10
1077.668924867582
 20
391.4719289124334
 30
0.0
 11
1102.291758867582
 21
391.4719289124334
 31
0.0
  0
LINE
  5
90D
330
B6B
100
AcDbEntity
  8
1
  6
Continuous
 62
   155
370
    70
100
AcDbLine
 10
1102.793886867582
 20
388.6128869124335
 30
0.0
 11
1077.180496867582
 21
388.6128869124335
 31
0.0
  0
LINE
  5
90E
330
B6B
100
AcDbEntity
  8
1
  6
Continuous
 62
   155
370
    70
100
AcDbLine
 10
1102.598487867582
 20
392.1754289124335
 30
0.0
 11
1077.723039867582
 21
392.1754289124335
 31
0.0
  0
LINE
  5
90F
330
B6B
100
AcDbEntity
  8
1
  6
Continuous
 62
   155
370
    70
100
AcDbLine
 10
1076.994958867582
 20
393.4819289124335
 30
0.0
 11
1103.904987867582
 21
393.4819289124335
 31
0.0
  0
LINE
  5
910
330
B6B
100
AcDbEntity
  8
1
  6
Continuous
 62
   155
370
    70
100
AcDbLine
 10
1076.994958867582
 20
388.4584539124335
 30
0.0
 11
1104.803886867582
 21
388.4584539124335
 31
0.0
  0
LINE
  5
911
330
B6B
100
AcDbEntity
  8
1
  6
Continuous
 62
   155
370
    70
100
AcDbLine
 10
1077.411457867582
 20
369.1624539124335
 30
0.0
 11
1102.692877867582
 21
369.1624539124335
 31
0.0
  0
LINE
  5
912
330
B6B
100
AcDbEntity
  8
1
  6
CENTER
 62
    18
370
    35
100
AcDbLine
 10
1077.888664867582
 20
373.9864539124335
 30
0.0
 11
1093.888664867582
 21
373.9864539124335
 31
0.0
  0
LINE
  5
913
330
B6B
100
AcDbEntity
  8
1
  6
Continuous
 62
   155
370
    70
100
AcDbLine
 10
1084.272273867582
 20
384.1548929124335
 30
0.0
 11
1084.272273867582
 21
380.5570859124335
 31
0.0
  0
LINE
  5
914
330
B6B
100
AcDbEntity
  8
1
  6
Continuous
 62
   155
370
    70
100
AcDbLine
 10
1084.180164867582
 20
380.3135659124335
 30
0.0
 11
1084.180164867582
 21
384.0627839124335
 31
0.0
  0
LINE
  5
915
330
B6B
100
AcDbEntity
  8
1
  6
Continuous
 62
   155
370
    70
100
AcDbLine
 10
1076.832611867582
 20
387.5790789124335
 30
0.0
 11
1076.832611867582
 21
380.8131669124335
 31
0.0
  0
LINE
  5
916
330
B6B
100
AcDbEntity
  8
1
  6
Continuous
 62
   155
370
    70
100
AcDbLine
 10
1076.693458867582
 20
380.6044369124335
 30
0.0
 11
1076.693458867582
 21
388.0104439124335
 31
0.0
  0
LINE
  5
917
330
B6B
100
AcDbEntity
  8
1
  6
Continuous
 62
   155
370
    70
100
AcDbLine
 10
1075.411533867582
 20
371.1623779124334
 30
0.0
 11
1075.411533867582
 21
394.0820419124335
 31
0.0
  0
LINE
  5
918
330
B6B
100
AcDbEntity
  8
1
  6
Continuous
 62
   155
370
    70
100
AcDbLine
 10
1075.525550867582
 20
379.8607039124335
 30
0.0
 11
1075.525550867582
 21
388.0094599124334
 31
0.0
  0
LINE
  5
919
330
B6B
100
AcDbEntity
  8
1
  6
CENTER
 62
    18
370
    35
100
AcDbLine
 10
1080.788289867582
 20
376.0364539124334
 30
0.0
 11
1080.788289867582
 21
392.0364539124334
 31
0.0
  0
LINE
  5
91A
330
B6B
100
AcDbEntity
  8
1
  6
Continuous
 62
   155
370
    35
100
AcDbLine
 10
1077.494777867582
 20
369.2457739124335
 30
0.0
 11
1077.411457867582
 21
369.1624539124335
 31
0.0
  0
LINE
  5
91B
330
B6B
100
AcDbEntity
  8
1
  6
Continuous
 62
   155
370
    70
100
AcDbLine
 10
1077.331550867582
 20
380.3135659124335
 30
0.0
 11
1084.180164867582
 21
380.3135659124335
 31
0.0
  0
LINE
  5
91C
330
B6B
100
AcDbEntity
  8
1
  6
Continuous
 62
   155
370
    70
100
AcDbLine
 10
1084.180164867582
 20
380.3135659124335
 30
0.0
 11
1084.272273867582
 21
380.5570859124335
 31
0.0
  0
LINE
  5
91D
330
B6B
100
AcDbEntity
  8
1
  6
Continuous
 62
   155
370
    35
100
AcDbLine
 10
1077.331550867582
 20
380.3135659124335
 30
0.0
 11
1077.192396867582
 21
380.1048359124335
 31
0.0
  0
LINE
  5
91E
330
B6B
100
AcDbEntity
  8
1
  6
Continuous
 62
   155
370
    35
100
AcDbLine
 10
1076.525436867582
 20
378.8607039124335
 30
0.0
 11
1076.494739867582
 21
378.7993059124335
 31
0.0
  0
LINE
  5
91F
330
B6B
100
AcDbEntity
  8
1
  6
Continuous
 62
   155
370
    35
100
AcDbLine
 10
1076.693458867582
 20
380.6044369124335
 30
0.0
 11
1076.832611867582
 21
380.8131669124335
 31
0.0
  0
LINE
  5
920
330
B6B
100
AcDbEntity
  8
1
  6
Continuous
 62
   155
370
    35
100
AcDbLine
 10
1075.411533867582
 20
371.1623779124334
 30
0.0
 11
1075.494853867582
 21
371.2456979124335
 31
0.0
  0
LINE
  5
921
330
B6B
100
AcDbEntity
  8
1
  6
Continuous
 62
   155
370
    70
100
AcDbLine
 10
1075.494853867582
 20
379.7993059124335
 30
0.0
 11
1075.494853867582
 21
371.2456979124335
 31
0.0
  0
LINE
  5
922
330
B6B
100
AcDbEntity
  8
1
  6
Continuous
 62
   155
370
    35
100
AcDbLine
 10
1075.494853867582
 20
379.7993059124335
 30
0.0
 11
1075.525550867582
 21
379.8607039124335
 31
0.0
  0
CIRCLE
  5
923
330
B6B
100
AcDbEntity
  8
1
  6
Continuous
 62
   155
370
    70
100
AcDbCircle
 10
1085.888664867582
 20
373.9864539124335
 30
0.0
 40
2.26125
  0
ELLIPSE
  5
924
330
B6B
100
AcDbEntity
  8
1
  6
Continuous
 62
   155
370
    70
100
AcDbEllipse
 10
1077.411609867582
 20
371.1625299124335
 30
0.0
 11
1.414321262261756
 21
1.414321262261801
 31
0.0
210
0.0
220
0.0
230
1.0
 40
0.999924
 41
2.356232566403364
 42
3.926952740776285
  0
ELLIPSE
  5
925
330
B6B
100
AcDbEntity
  8
1
  6
Continuous
 62
   155
370
    70
100
AcDbEllipse
 10
1077.494929867582
 20
371.2458499124335
 30
0.0
 11
1.414321262261756
 21
1.414321262261801
 31
0.0
210
0.0
220
0.0
230
1.0
 40
0.999924
 41
2.356232566403364
 42
3.926952740776285
  0
ELLIPSE
  5
926
330
B6B
100
AcDbEntity
  8
1
  6
Continuous
 62
   155
370
    70
100
AcDbEllipse
 10
1077.333144867582
 20
380.8147629124335
 30
0.0
 11
-0.2783085002330181
 21
-0.4174627503488432
 31
0.0
210
0.0
220
0.0
230
1.0
 40
0.9965560000000001
 41
5.301984766162141
 42
6.869596840884057
  0
ELLIPSE
  5
927
330
B6B
100
AcDbEntity
  8
1
  6
Continuous
 62
   155
370
    70
100
AcDbEllipse
 10
1076.494891867582
 20
379.7994579124335
 30
0.0
 11
-0.4472714922462575
 21
-0.8946111164840794
 31
0.0
210
0.0
220
0.0
230
1.0
 40
0.99981
 41
5.176082279504844
 42
6.746726307255036
  0
ELLIPSE
  5
928
330
B6B
100
AcDbEntity
  8
1
  6
Continuous
 62
   155
370
    70
100
AcDbEllipse
 10
1077.193990867582
 20
380.6060329124335
 30
0.0
 11
-0.2783085002330181
 21
-0.4174627503488432
 31
0.0
210
0.0
220
0.0
230
1.0
 40
0.9965560000000001
 41
5.301984766162141
 42
6.869596840884057
  0
ELLIPSE
  5
929
330
B6B
100
AcDbEntity
  8
1
  6
Continuous
 62
   155
370
    70
100
AcDbEllipse
 10
1076.525588867582
 20
379.8608559124335
 30
0.0
 11
-0.4472714922462575
 21
-0.8946111164840794
 31
0.0
210
0.0
220
0.0
230
1.0
 40
0.99981
 41
5.176082279504844
 42
6.746726307255036
  0
LINE
  5
92A
330
B6B
100
AcDbEntity
  8
1
  6
CENTER
 62
    18
370
    35
100
AcDbLine
 10
1085.888664867582
 20
365.9864539124335
 30
0.0
 11
1085.888664867582
 21
381.9864539124335
 31
0.0
  0
ELLIPSE
  5
92B
330
B6B
100
AcDbEntity
  8
1
  6
Continuous
 62
   155
370
    70
100
AcDbEllipse
 10
1080.753567867582
 20
384.1524819124335
 30
0.0
 11
-2.488953030700714
 21
-2.488953030700789
 31
0.0
210
0.0
220
0.0
230
1.0
 40
0.999315
 41
2.356537106530546
 42
3.92664820064908
  0
ELLIPSE
  5
92C
330
B6B
100
AcDbEntity
  8
1
  6
Continuous
 62
   155
370
    70
100
AcDbEllipse
 10
1080.661458867582
 20
384.0603729124335
 30
0.0
 11
-2.488953030700714
 21
-2.488953030700789
 31
0.0
210
0.0
220
0.0
230
1.0
 40
0.999315
 41
2.356537106530384
 42
3.92664820064908
  0
LINE
  5
92D
330
B6B
100
AcDbEntity
  8
1
  6
Continuous
 62
   155
370
    70
100
AcDbLine
 10
1077.180496867582
 20
388.6128869124335
 30
0.0
 11
1077.180496867582
 21
391.4719289124334
 31
0.0
  0
LINE
  5
92E
330
B6B
100
AcDbEntity
  8
1
  6
Continuous
 62
   155
370
    70
100
AcDbLine
 10
1080.663869867582
 20
387.5790789124335
 30
0.0
 11
1076.832611867582
 21
387.5790789124335
 31
0.0
  0
LINE
  5
92F
330
B6B
100
AcDbEntity
  8
1
  6
Continuous
 62
   155
370
    35
100
AcDbLine
 10
1080.663869867582
 20
387.5790789124335
 30
0.0
 11
1080.755978867582
 21
387.6711879124335
 31
0.0
  0
LINE
  5
930
330
B6B
100
AcDbEntity
  8
1
  6
Continuous
 62
   155
370
    70
100
AcDbLine
 10
1076.994958867582
 20
387.6711879124335
 30
0.0
 11
1080.755978867582
 21
387.6711879124335
 31
0.0
  0
LINE
  5
931
330
B6B
100
AcDbEntity
  8
1
  6
Continuous
 62
   155
370
    70
100
AcDbLine
 10
1076.018192867582
 20
388.5703569124335
 30
0.0
 11
1076.242660867582
 21
388.5703569124335
 31
0.0
  0
LINE
  5
932
330
B6B
100
AcDbEntity
  8
1
  6
Continuous
 62
   155
370
    35
100
AcDbLine
 10
1076.191636867582
 20
388.5124199124335
 30
0.0
 11
1076.242660867582
 21
388.5703569124335
 31
0.0
  0
LINE
  5
933
330
B6B
100
AcDbEntity
  8
1
  6
Continuous
 62
   155
370
    35
100
AcDbLine
 10
1076.018192867582
 20
388.5703569124335
 30
0.0
 11
1076.027839867582
 21
388.5124199124335
 31
0.0
  0
LINE
  5
934
330
B6B
100
AcDbEntity
  8
1
  6
Continuous
 62
   155
370
    35
100
AcDbLine
 10
1076.744481867582
 20
388.0683809124334
 30
0.0
 11
1076.693458867582
 21
388.0104439124335
 31
0.0
  0
LINE
  5
935
330
B6B
100
AcDbEntity
  8
1
  6
Continuous
 62
   155
370
    70
100
AcDbLine
 10
1076.832611867582
 20
387.5790789124335
 30
0.0
 11
1076.994958867582
 21
387.6711879124335
 31
0.0
  0
LINE
  5
936
330
B6B
100
AcDbEntity
  8
1
  6
Continuous
 62
   155
370
    70
100
AcDbLine
 10
1076.994958867582
 20
388.4584539124335
 30
0.0
 11
1076.994958867582
 21
387.6711879124335
 31
0.0
  0
LINE
  5
937
330
B6B
100
AcDbEntity
  8
1
  6
Continuous
 62
   155
370
    70
100
AcDbLine
 10
1077.180496867582
 20
388.6128869124335
 30
0.0
 11
1076.994958867582
 21
388.4584539124335
 31
0.0
  0
LINE
  5
938
330
B6B
100
AcDbEntity
  8
1
  6
Continuous
 62
   155
370
    70
100
AcDbLine
 10
1076.191636867582
 20
388.5124199124335
 30
0.0
 11
1076.027839867582
 21
388.5124199124335
 31
0.0
  0
LINE
  5
939
330
B6B
100
AcDbEntity
  8
1
  6
Continuous
 62
   155
370
    35
100
AcDbLine
 10
1075.525550867582
 20
388.0094599124334
 30
0.0
 11
1075.515902867582
 21
388.0673969124335
 31
0.0
  0
CIRCLE
  5
93A
330
B6B
100
AcDbEntity
  8
1
  6
Continuous
 62
   155
370
    70
100
AcDbCircle
 10
1080.788289867582
 20
384.0364539124334
 30
0.0
 40
1.3065
  0
ELLIPSE
  5
93B
330
B6B
100
AcDbEntity
  8
1
  6
Continuous
 62
   155
370
    70
100
AcDbEllipse
 10
1076.241446867582
 20
388.0671669124335
 30
0.0
 11
-0.3329162475202902
 21
-0.3780270264278331
 31
0.0
210
0.0
220
0.0
230
1.0
 40
0.9975710000000001
 41
2.294034087309722
 42
3.862417474715397
  0
ELLIPSE
  5
93C
330
B6B
100
AcDbEntity
  8
1
  6
Continuous
 62
   155
370
    70
100
AcDbEllipse
 10
1076.018421867582
 20
388.0671669124335
 30
0.0
 11
-0.08265547107403076
 21
0.4963739326004097
 31
0.0
210
0.0
220
0.0
230
1.0
 40
0.9985919999999999
 41
6.118408943322573
 42
7.688748558521469
  0
ELLIPSE
  5
93D
330
B6B
100
AcDbEntity
  8
1
  6
Continuous
 62
   155
370
    70
100
AcDbEllipse
 10
1076.190423867582
 20
388.0092299124335
 30
0.0
 11
-0.3329162475202902
 21
-0.3780270264278331
 31
0.0
210
0.0
220
0.0
230
1.0
 40
0.9975710000000001
 41
2.294034087309631
 42
3.862417474715397
  0
ELLIPSE
  5
93E
330
B6B
100
AcDbEntity
  8
1
  6
Continuous
 62
   155
370
    70
100
AcDbEllipse
 10
1076.028069867582
 20
388.0092299124335
 30
0.0
 11
-0.08265547107403076
 21
0.4963739326004097
 31
0.0
210
0.0
220
0.0
230
1.0
 40
0.9985919999999999
 41
6.118408943322573
 42
7.688748558521954
  0
LINE
  5
93F
330
B6B
100
AcDbEntity
  8
1
  6
Continuous
 62
   155
370
    70
100
AcDbLine
 10
1077.668924867582
 20
391.4719289124334
 30
0.0
 11
1077.180496867582
 21
391.4719289124334
 31
0.0
  0
LINE
  5
940
330
B6B
100
AcDbEntity
  8
1
  6
Continuous
 62
   155
370
    70
100
AcDbLine
 10
1077.723039867582
 20
392.1754289124335
 30
0.0
 11
1077.668924867582
 21
391.4719289124334
 31
0.0
  0
LINE
  5
941
330
B6B
100
AcDbEntity
  8
1
  6
Continuous
 62
   155
370
    70
100
AcDbLine
 10
1077.180496867582
 20
391.4719289124334
 30
0.0
 11
1076.994958867582
 21
393.4819289124335
 31
0.0
  0
LINE
  5
942
330
B6B
100
AcDbEntity
  8
1
  6
Continuous
 62
   155
370
    70
100
AcDbLine
 10
1075.445738867582
 20
394.2874539124335
 30
0.0
 11
1075.411533867582
 21
394.0820419124335
 31
0.0
  0
LINE
  5
943
330
B6B
100
AcDbEntity
  8
1
  6
Continuous
 62
   155
370
    35
100
AcDbLine
 10
1084.272273867582
 20
384.1548929124335
 30
0.0
 11
1084.180164867582
 21
384.0627839124335
 31
0.0
  0
LINE
  5
944
330
B6B
100
AcDbEntity
  8
1
  6
Continuous
 62
   155
370
    70
100
AcDbLine
 10
1102.793886867582
 20
390.9698009124335
 30
0.0
 11
1102.793886867582
 21
388.6128869124335
 31
0.0
  0
LINE
  5
945
330
B6B
100
AcDbEntity
  8
1
  6
Continuous
 62
   155
370
    70
100
AcDbLine
 10
1103.497386867582
 20
391.2765299124335
 30
0.0
 11
1103.497386867582
 21
388.5588349124334
 31
0.0
  0
LINE
  5
946
330
B6B
100
AcDbEntity
  8
1
  6
Continuous
 62
   155
370
    35
100
AcDbLine
 10
1104.803886867582
 20
392.5830299124335
 30
0.0
 11
1103.497386867582
 21
391.2765299124335
 31
0.0
  0
LINE
  5
947
330
B6B
100
AcDbEntity
  8
1
  6
Continuous
 62
   155
370
    70
100
AcDbLine
 10
1103.497386867582
 20
388.5588349124334
 30
0.0
 11
1104.803886867582
 21
388.4584539124335
 31
0.0
  0
LINE
  5
948
330
B6B
100
AcDbEntity
  8
1
  6
Continuous
 62
   155
370
    70
100
AcDbLine
 10
1103.497386867582
 20
388.5588349124334
 30
0.0
 11
1102.848002867582
 21
388.5588349124334
 31
0.0
  0
LINE
  5
949
330
B6B
100
AcDbEntity
  8
1
  6
Continuous
 62
   155
370
    70
100
AcDbLine
 10
1102.848002867582
 20
388.5588349124334
 30
0.0
 11
1102.793886867582
 21
388.6128869124335
 31
0.0
  0
LINE
  5
94A
330
B6B
100
AcDbEntity
  8
1
  6
Continuous
 62
   155
370
    35
100
AcDbLine
 10
1102.598487867582
 20
392.1754289124335
 30
0.0
 11
1103.904987867582
 21
393.4819289124335
 31
0.0
  0
LINE
  5
94B
330
B6B
100
AcDbEntity
  8
1
  6
Continuous
 62
   155
370
    70
100
AcDbLine
 10
1104.803886867582
 20
388.4584539124335
 30
0.0
 11
1104.803886867582
 21
392.5830299124335
 31
0.0
  0
LINE
  5
94C
330
B6B
100
AcDbEntity
  8
1
  6
Continuous
 62
   155
370
    70
100
AcDbLine
 10
1102.898289867582
 20
369.1966589124335
 30
0.0
 11
1102.692877867582
 21
369.1624539124335
 31
0.0
  0
ELLIPSE
  5
94D
330
B6B
100
AcDbEntity
  8
1
  6
Continuous
 62
   155
370
    70
100
AcDbEllipse
 10
1102.291015867582
 20
390.9690579124335
 30
0.0
 11
0.3558463923599877
 21
0.3558463923599992
 31
0.0
210
0.0
220
0.0
230
1.0
 40
0.998524
 41
5.498525696488128
 42
7.067844917871225
  0
ELLIPSE
  5
94E
330
B6B
100
AcDbEntity
  8
1
  6
Continuous
 62
   155
370
    70
100
AcDbEllipse
 10
1102.373762867582
 20
391.0518049124335
 30
0.0
 11
-0.8703555308033427
 21
-0.8703555308033686
 31
0.0
210
0.0
220
0.0
230
1.0
 40
0.816497
 41
2.456873450587494
 42
3.826311856592122
  0
ELLIPSE
  5
94F
330
B6B
100
AcDbEntity
  8
1
  6
Continuous
 62
   155
370
    70
100
AcDbEllipse
 10
1103.680262867582
 20
392.3583049124335
 30
0.0
 11
-0.8703555308033427
 21
-0.8703555308033686
 31
0.0
210
0.0
220
0.0
230
1.0
 40
0.816497
 41
2.456873450587494
 42
3.826311856592122
  0
LINE
  5
950
330
B6B
100
AcDbEntity
  8
1
  6
Continuous
 62
   155
370
    70
100
AcDbLine
 10
1076.994958867582
 20
430.9699539124335
 30
0.0
 11
1076.994958867582
 21
452.6779539124335
 31
0.0
  0
LINE
  5
951
330
B6B
100
AcDbEntity
  8
1
  6
Continuous
 62
   155
370
    70
100
AcDbLine
 10
1075.411533867582
 20
458.3015419124335
 30
0.0
 11
1075.411533867582
 21
425.3463659124334
 31
0.0
  0
LINE
  5
952
330
B6B
100
AcDbEntity
  8
1
  6
Continuous
 62
   155
370
    70
100
AcDbLine
 10
1077.668924867582
 20
427.9588189124335
 30
0.0
 11
1102.291758867582
 21
427.9588189124335
 31
0.0
  0
LINE
  5
953
330
B6B
100
AcDbEntity
  8
1
  6
Continuous
 62
   155
370
    70
100
AcDbLine
 10
1102.793886867582
 20
430.8155209124334
 30
0.0
 11
1077.180496867582
 21
430.8155209124334
 31
0.0
  0
LINE
  5
954
330
B6B
100
AcDbEntity
  8
1
  6
Continuous
 62
   155
370
    70
100
AcDbLine
 10
1076.994958867582
 20
430.9699539124335
 30
0.0
 11
1104.803886867582
 21
430.9699539124335
 31
0.0
  0
LINE
  5
955
330
B6B
100
AcDbEntity
  8
1
  6
Continuous
 62
   155
370
    70
100
AcDbLine
 10
1091.441289867582
 20
407.3524539124335
 30
0.0
 11
1094.054289867582
 21
407.3524539124335
 31
0.0
  0
LINE
  5
956
330
B6B
100
AcDbEntity
  8
1
  6
Continuous
 62
   155
370
    70
100
AcDbLine
 10
1091.441289867582
 20
412.0257039124335
 30
0.0
 11
1094.054289867582
 21
412.0257039124335
 31
0.0
  0
LINE
  5
957
330
B6B
100
AcDbEntity
  8
1
  6
Continuous
 62
   155
370
    70
100
AcDbLine
 10
1076.994958867582
 20
425.9488189124335
 30
0.0
 11
1103.904987867582
 21
425.9488189124335
 31
0.0
  0
LINE
  5
958
330
B6B
100
AcDbEntity
  8
1
  6
Continuous
 62
   155
370
    70
100
AcDbLine
 10
1102.598487867582
 20
427.2553189124335
 30
0.0
 11
1077.723039867582
 21
427.2553189124335
 31
0.0
  0
LINE
  5
959
330
B6B
100
AcDbEntity
  8
1
  6
Continuous
 62
   155
370
    70
100
AcDbLine
 10
1091.441289867582
 20
407.3524539124335
 30
0.0
 11
1091.441289867582
 21
412.0257039124335
 31
0.0
  0
LINE
  5
95A
330
B6B
100
AcDbEntity
  8
1
  6
Continuous
 62
   155
370
    70
100
AcDbLine
 10
1077.668924867582
 20
427.9588189124335
 30
0.0
 11
1077.723039867582
 21
427.2553189124335
 31
0.0
  0
LINE
  5
95B
330
B6B
100
AcDbEntity
  8
1
  6
Continuous
 62
   155
370
    70
100
AcDbLine
 10
1077.668924867582
 20
427.9588189124335
 30
0.0
 11
1077.180496867582
 21
427.9588189124335
 31
0.0
  0
LINE
  5
95C
330
B6B
100
AcDbEntity
  8
1
  6
Continuous
 62
   155
370
    70
100
AcDbLine
 10
1077.180496867582
 20
427.9588189124335
 30
0.0
 11
1076.994958867582
 21
425.9488189124335
 31
0.0
  0
LINE
  5
95D
330
B6B
100
AcDbEntity
  8
1
  6
Continuous
 62
   155
370
    70
100
AcDbLine
 10
1077.180496867582
 20
430.8155209124334
 30
0.0
 11
1077.180496867582
 21
427.9588189124335
 31
0.0
  0
LINE
  5
95E
330
B6B
100
AcDbEntity
  8
1
  6
Continuous
 62
   155
370
    70
100
AcDbLine
 10
1077.180496867582
 20
430.8155209124334
 30
0.0
 11
1076.994958867582
 21
430.9699539124335
 31
0.0
  0
LINE
  5
95F
330
B6B
100
AcDbEntity
  8
1
  6
Continuous
 62
   155
370
    70
100
AcDbLine
 10
1075.445738867582
 20
425.1409539124335
 30
0.0
 11
1075.411533867582
 21
425.3463659124334
 31
0.0
  0
LINE
  5
960
330
B6B
100
AcDbEntity
  8
1
  6
Continuous
 62
   155
370
    70
100
AcDbLine
 10
1102.793886867582
 20
430.8155209124334
 30
0.0
 11
1102.793886867582
 21
428.4609479124335
 31
0.0
  0
LINE
  5
961
330
B6B
100
AcDbEntity
  8
1
  6
Continuous
 62
   155
370
    70
100
AcDbLine
 10
1103.497386867582
 20
430.8695729124335
 30
0.0
 11
1103.497386867582
 21
428.1542189124335
 31
0.0
  0
LINE
  5
962
330
B6B
100
AcDbEntity
  8
1
  6
Continuous
 62
   155
370
    35
100
AcDbLine
 10
1103.497386867582
 20
428.1542189124335
 30
0.0
 11
1104.803886867582
 21
426.8477189124335
 31
0.0
  0
LINE
  5
963
330
B6B
100
AcDbEntity
  8
1
  6
Continuous
 62
   155
370
    70
100
AcDbLine
 10
1102.793886867582
 20
430.8155209124334
 30
0.0
 11
1102.848002867582
 21
430.8695729124335
 31
0.0
  0
LINE
  5
964
330
B6B
100
AcDbEntity
  8
1
  6
Continuous
 62
   155
370
    70
100
AcDbLine
 10
1102.848002867582
 20
430.8695729124335
 30
0.0
 11
1103.497386867582
 21
430.8695729124335
 31
0.0
  0
LINE
  5
965
330
B6B
100
AcDbEntity
  8
1
  6
Continuous
 62
   155
370
    70
100
AcDbLine
 10
1103.497386867582
 20
430.8695729124335
 30
0.0
 11
1104.803886867582
 21
430.9699539124335
 31
0.0
  0
LINE
  5
966
330
B6B
100
AcDbEntity
  8
1
  6
Continuous
 62
   155
370
    70
100
AcDbLine
 10
1104.803886867582
 20
430.9699539124335
 30
0.0
 11
1104.803886867582
 21
426.8477189124335
 31
0.0
  0
LINE
  5
967
330
B6B
100
AcDbEntity
  8
1
  6
Continuous
 62
   155
370
    70
100
AcDbLine
 10
1097.471289867582
 20
407.3524539124335
 30
0.0
 11
1097.471289867582
 21
412.0257039124335
 31
0.0
  0
LINE
  5
968
330
B6B
100
AcDbEntity
  8
1
  6
Continuous
 62
   155
370
    70
100
AcDbLine
 10
1094.054289867582
 20
407.3524539124335
 30
0.0
 11
1094.054289867582
 21
412.0257039124335
 31
0.0
  0
LINE
  5
969
330
B6B
100
AcDbEntity
  8
1
  6
Continuous
 62
   155
370
    35
100
AcDbLine
 10
1103.904987867582
 20
425.9488189124335
 30
0.0
 11
1102.598487867582
 21
427.2553189124335
 31
0.0
  0
ELLIPSE
  5
96A
330
B6B
100
AcDbEntity
  8
1
  6
Continuous
 62
   155
370
    70
100
AcDbEllipse
 10
1102.291015867582
 20
428.4616909124335
 30
0.0
 11
-0.3558463923599882
 21
0.3558463923599987
 31
0.0
210
0.0
220
0.0
230
1.0
 40
0.998524
 41
2.356933042898152
 42
3.926252264281551
  0
ELLIPSE
  5
96B
330
B6B
100
AcDbEntity
  8
1
  6
Continuous
 62
   155
370
    70
100
AcDbEllipse
 10
1102.373762867582
 20
428.3789439124334
 30
0.0
 11
0.8703555308033516
 21
-0.8703555308033799
 31
0.0
210
0.0
220
0.0
230
1.0
 40
0.8164969999999999
 41
5.598466104177259
 42
6.967904510181886
  0
ELLIPSE
  5
96C
330
B6B
100
AcDbEntity
  8
1
  6
Continuous
 62
   155
370
    70
100
AcDbEllipse
 10
1103.680262867582
 20
427.0724439124335
 30
0.0
 11
0.8703555308033516
 21
-0.8703555308033799
 31
0.0
210
0.0
220
0.0
230
1.0
 40
0.8164969999999999
 41
5.598466104177259
 42
6.967904510181886
  0
LINE
  5
96D
330
B6B
100
AcDbEntity
  8
1
  6
Continuous
 62
   155
370
    70
100
AcDbLine
 10
1077.668924867582
 20
455.6890889124335
 30
0.0
 11
1102.291758867582
 21
455.6890889124335
 31
0.0
  0
LINE
  5
96E
330
B6B
100
AcDbEntity
  8
1
  6
Continuous
 62
   155
370
    70
100
AcDbLine
 10
1102.793886867582
 20
452.8323869124335
 30
0.0
 11
1077.180496867582
 21
452.8323869124335
 31
0.0
  0
LINE
  5
96F
330
B6B
100
AcDbEntity
  8
1
  6
Continuous
 62
   155
370
    70
100
AcDbLine
 10
1102.598487867582
 20
456.3925889124334
 30
0.0
 11
1077.723039867582
 21
456.3925889124334
 31
0.0
  0
LINE
  5
970
330
B6B
100
AcDbEntity
  8
1
  6
Continuous
 62
   155
370
    70
100
AcDbLine
 10
1076.994958867582
 20
452.6779539124335
 30
0.0
 11
1104.803886867582
 21
452.6779539124335
 31
0.0
  0
LINE
  5
971
330
B6B
100
AcDbEntity
  8
1
  6
Continuous
 62
   155
370
    70
100
AcDbLine
 10
1076.994958867582
 20
457.6990889124335
 30
0.0
 11
1103.904987867582
 21
457.6990889124335
 31
0.0
  0
LINE
  5
972
330
B6B
100
AcDbEntity
  8
1
  6
Continuous
 62
   155
370
    70
100
AcDbLine
 10
1091.441289867582
 20
471.6222039124335
 30
0.0
 11
1094.054289867582
 21
471.6222039124335
 31
0.0
  0
LINE
  5
973
330
B6B
100
AcDbEntity
  8
1
  6
Continuous
 62
   155
370
    70
100
AcDbLine
 10
1077.668924867582
 20
455.6890889124335
 30
0.0
 11
1077.180496867582
 21
455.6890889124335
 31
0.0
  0
LINE
  5
974
330
B6B
100
AcDbEntity
  8
1
  6
Continuous
 62
   155
370
    70
100
AcDbLine
 10
1077.668924867582
 20
455.6890889124335
 30
0.0
 11
1077.723039867582
 21
456.3925889124334
 31
0.0
  0
LINE
  5
975
330
B6B
100
AcDbEntity
  8
1
  6
Continuous
 62
   155
370
    70
100
AcDbLine
 10
1077.180496867582
 20
452.8323869124335
 30
0.0
 11
1076.994958867582
 21
452.6779539124335
 31
0.0
  0
LINE
  5
976
330
B6B
100
AcDbEntity
  8
1
  6
Continuous
 62
   155
370
    70
100
AcDbLine
 10
1077.180496867582
 20
452.8323869124335
 30
0.0
 11
1077.180496867582
 21
455.6890889124335
 31
0.0
  0
LINE
  5
977
330
B6B
100
AcDbEntity
  8
1
  6
Continuous
 62
   155
370
    70
100
AcDbLine
 10
1077.180496867582
 20
455.6890889124335
 30
0.0
 11
1076.994958867582
 21
457.6990889124335
 31
0.0
  0
LINE
  5
978
330
B6B
100
AcDbEntity
  8
1
  6
Continuous
 62
   155
370
    70
100
AcDbLine
 10
1075.445738867582
 20
458.5069539124335
 30
0.0
 11
1075.411533867582
 21
458.3015419124335
 31
0.0
  0
LINE
  5
979
330
B6B
100
AcDbEntity
  8
1
  6
Continuous
 62
   155
370
    70
100
AcDbLine
 10
1102.793886867582
 20
452.8323869124335
 30
0.0
 11
1102.793886867582
 21
455.1869599124335
 31
0.0
  0
LINE
  5
97A
330
B6B
100
AcDbEntity
  8
1
  6
Continuous
 62
   155
370
    70
100
AcDbLine
 10
1103.497386867582
 20
452.7783349124335
 30
0.0
 11
1103.497386867582
 21
455.4936889124335
 31
0.0
  0
LINE
  5
97B
330
B6B
100
AcDbEntity
  8
1
  6
Continuous
 62
   155
370
    35
100
AcDbLine
 10
1104.803886867582
 20
456.8001889124334
 30
0.0
 11
1103.497386867582
 21
455.4936889124335
 31
0.0
  0
LINE
  5
97C
330
B6B
100
AcDbEntity
  8
1
  6
Continuous
 62
   155
370
    70
100
AcDbLine
 10
1102.793886867582
 20
452.8323869124335
 30
0.0
 11
1102.848002867582
 21
452.7783349124335
 31
0.0
  0
LINE
  5
97D
330
B6B
100
AcDbEntity
  8
1
  6
Continuous
 62
   155
370
    70
100
AcDbLine
 10
1103.497386867582
 20
452.7783349124335
 30
0.0
 11
1104.803886867582
 21
452.6779539124335
 31
0.0
  0
LINE
  5
97E
330
B6B
100
AcDbEntity
  8
1
  6
Continuous
 62
   155
370
    70
100
AcDbLine
 10
1102.848002867582
 20
452.7783349124335
 30
0.0
 11
1103.497386867582
 21
452.7783349124335
 31
0.0
  0
LINE
  5
97F
330
B6B
100
AcDbEntity
  8
1
  6
Continuous
 62
   155
370
    35
100
AcDbLine
 10
1102.598487867582
 20
456.3925889124334
 30
0.0
 11
1103.904987867582
 21
457.6990889124335
 31
0.0
  0
LINE
  5
980
330
B6B
100
AcDbEntity
  8
1
  6
Continuous
 62
   155
370
    70
100
AcDbLine
 10
1104.803886867582
 20
452.6779539124335
 30
0.0
 11
1104.803886867582
 21
456.8001889124334
 31
0.0
  0
ELLIPSE
  5
981
330
B6B
100
AcDbEntity
  8
1
  6
Continuous
 62
   155
370
    70
100
AcDbEllipse
 10
1102.291015867582
 20
455.1862169124335
 30
0.0
 11
-0.3558463923599889
 21
-0.3558463923599995
 31
0.0
210
0.0
220
0.0
230
1.0
 40
0.998524
 41
2.356933042898036
 42
3.926252264281434
  0
ELLIPSE
  5
982
330
B6B
100
AcDbEntity
  8
1
  6
Continuous
 62
   155
370
    70
100
AcDbEllipse
 10
1102.373762867582
 20
455.2689639124335
 30
0.0
 11
0.8703555308033516
 21
0.8703555308033797
 31
0.0
210
0.0
220
0.0
230
1.0
 40
0.8164969999999999
 41
5.598466104177287
 42
6.967904510181913
  0
ELLIPSE
  5
983
330
B6B
100
AcDbEntity
  8
1
  6
Continuous
 62
   155
370
    70
100
AcDbEllipse
 10
1103.680262867582
 20
456.5754639124335
 30
0.0
 11
0.8703555308033516
 21
0.8703555308033797
 31
0.0
210
0.0
220
0.0
230
1.0
 40
0.8164969999999999
 41
5.598466104177287
 42
6.967904510181913
  0
LINE
  5
984
330
B6B
100
AcDbEntity
  8
1
  6
Continuous
 62
   155
370
    70
100
AcDbLine
 10
978.8957898675818
 20
495.6384479124335
 30
0.0
 11
978.8957898675818
 21
495.1354879124335
 31
0.0
  0
LINE
  5
985
330
B6B
100
AcDbEntity
  8
1
  6
Continuous
 62
   155
370
    70
100
AcDbLine
 10
978.8957898675818
 20
495.1354879124335
 30
0.0
 11
977.7902898675818
 21
495.0775509124335
 31
0.0
  0
LINE
  5
986
330
B6B
100
AcDbEntity
  8
1
  6
Continuous
 62
   155
370
    70
100
AcDbLine
 10
978.8957898675818
 20
504.7872039124335
 30
0.0
 11
978.8957898675818
 21
503.7872039124335
 31
0.0
  0
LINE
  5
987
330
B6B
100
AcDbEntity
  8
1
  6
Continuous
 62
   155
370
    70
100
AcDbLine
 10
975.3782898675819
 20
504.8486019124335
 30
0.0
 11
978.8957898675818
 21
504.7872039124335
 31
0.0
  0
LINE
  5
988
330
B6B
100
AcDbEntity
  8
1
  6
Continuous
 62
   155
370
    70
100
AcDbLine
 10
975.3782898675819
 20
514.4021339124334
 30
0.0
 11
975.3782898675819
 21
512.4022099124335
 31
0.0
  0
LINE
  5
989
330
B6B
100
AcDbEntity
  8
1
  6
Continuous
 62
   155
370
    70
100
AcDbLine
 10
975.3782898675819
 20
503.8486019124335
 30
0.0
 11
975.3782898675819
 21
512.4022099124335
 31
0.0
  0
LINE
  5
98A
330
B6B
100
AcDbEntity
  8
1
  6
Continuous
 62
   155
370
    35
100
AcDbLine
 10
977.7902898675818
 20
495.5805109124335
 30
0.0
 11
978.8957898675818
 21
495.6384479124335
 31
0.0
  0
LINE
  5
98B
330
B6B
100
AcDbEntity
  8
1
  6
Continuous
 62
   155
370
    70
100
AcDbLine
 10
978.8957898675818
 20
503.7872039124335
 30
0.0
 11
978.8957898675818
 21
495.6384479124335
 31
0.0
  0
LINE
  5
98C
330
B6B
100
AcDbEntity
  8
1
  6
Continuous
 62
   155
370
    35
100
AcDbLine
 10
978.8957898675818
 20
503.7872039124335
 30
0.0
 11
975.3782898675819
 21
503.8486019124335
 31
0.0
  0
LINE
  5
98D
330
B6B
100
AcDbEntity
  8
1
  6
CENTER
 62
    18
370
    35
100
AcDbLine
 10
1072.788289867582
 20
499.6114539124335
 30
0.0
 11
1088.788289867582
 21
499.6114539124335
 31
0.0
  0
LINE
  5
98E
330
B6B
100
AcDbEntity
  8
1
  6
Continuous
 62
   155
370
    70
100
AcDbLine
 10
1075.494853867582
 20
503.8486019124335
 30
0.0
 11
1075.494853867582
 21
512.4022099124335
 31
0.0
  0
LINE
  5
98F
330
B6B
100
AcDbEntity
  8
1
  6
Continuous
 62
   155
370
    70
100
AcDbLine
 10
1075.411533867582
 20
512.4855299124335
 30
0.0
 11
1075.411533867582
 21
489.5658659124335
 31
0.0
  0
CIRCLE
  5
990
330
B6B
100
AcDbEntity
  8
1
  6
Continuous
 62
   155
370
    70
100
AcDbCircle
 10
1085.888664867582
 20
509.6614539124334
 30
0.0
 40
2.26125
  0
LINE
  5
991
330
B6B
100
AcDbEntity
  8
1
  6
CENTER
 62
    18
370
    35
100
AcDbLine
 10
1085.888664867582
 20
501.6614539124334
 30
0.0
 11
1085.888664867582
 21
517.6614539124334
 31
0.0
  0
LINE
  5
992
330
B6B
100
AcDbEntity
  8
1
  6
Continuous
 62
   155
370
    70
100
AcDbLine
 10
1077.668924867582
 20
492.1759789124335
 30
0.0
 11
1102.291758867582
 21
492.1759789124335
 31
0.0
  0
LINE
  5
993
330
B6B
100
AcDbEntity
  8
1
  6
Continuous
 62
   155
370
    70
100
AcDbLine
 10
1102.793886867582
 20
495.0350209124335
 30
0.0
 11
1077.180496867582
 21
495.0350209124335
 31
0.0
  0
LINE
  5
994
330
B6B
100
AcDbEntity
  8
1
  6
Continuous
 62
   155
370
    70
100
AcDbLine
 10
1102.598487867582
 20
491.4724789124335
 30
0.0
 11
1077.723039867582
 21
491.4724789124335
 31
0.0
  0
LINE
  5
995
330
B6B
100
AcDbEntity
  8
1
  6
Continuous
 62
   155
370
    70
100
AcDbLine
 10
1076.994958867582
 20
495.1894539124335
 30
0.0
 11
1104.803886867582
 21
495.1894539124335
 31
0.0
  0
LINE
  5
996
330
B6B
100
AcDbEntity
  8
1
  6
Continuous
 62
   155
370
    70
100
AcDbLine
 10
1076.994958867582
 20
490.1659789124334
 30
0.0
 11
1103.904987867582
 21
490.1659789124334
 31
0.0
  0
LINE
  5
997
330
B6B
100
AcDbEntity
  8
1
  6
Continuous
 62
   155
370
    70
100
AcDbLine
 10
1091.441289867582
 20
476.2954539124335
 30
0.0
 11
1094.054289867582
 21
476.2954539124335
 31
0.0
  0
LINE
  5
998
330
B6B
100
AcDbEntity
  8
1
  6
Continuous
 62
   155
370
    70
100
AcDbLine
 10
1075.445738867582
 20
489.3604539124335
 30
0.0
 11
1075.411533867582
 21
489.5658659124335
 31
0.0
  0
LINE
  5
999
330
B6B
100
AcDbEntity
  8
1
  6
Continuous
 62
   155
370
    70
100
AcDbLine
 10
1077.331550867582
 20
503.3343419124334
 30
0.0
 11
1084.180164867582
 21
503.3343419124334
 31
0.0
  0
ELLIPSE
  5
99A
330
B6B
100
AcDbEntity
  8
1
  6
Continuous
 62
   155
370
    70
100
AcDbEllipse
 10
1080.753567867582
 20
499.4954259124335
 30
0.0
 11
-2.488953030700716
 21
2.48895303070079
 31
0.0
210
0.0
220
0.0
230
1.0
 40
0.999315
 41
2.356537106530507
 42
3.926648200649041
  0
ELLIPSE
  5
99B
330
B6B
100
AcDbEntity
  8
1
  6
Continuous
 62
   155
370
    70
100
AcDbEllipse
 10
1080.661458867582
 20
499.5875349124335
 30
0.0
 11
-2.488953030700716
 21
2.48895303070079
 31
0.0
210
0.0
220
0.0
230
1.0
 40
0.999315
 41
2.356537106530507
 42
3.926648200649203
  0
LINE
  5
99C
330
B6B
100
AcDbEntity
  8
1
  6
Continuous
 62
   155
370
    70
100
AcDbLine
 10
1076.832611867582
 20
496.0688289124334
 30
0.0
 11
1076.832611867582
 21
502.8347409124335
 31
0.0
  0
LINE
  5
99D
330
B6B
100
AcDbEntity
  8
1
  6
Continuous
 62
   155
370
    70
100
AcDbLine
 10
1076.693458867582
 20
503.0434709124335
 30
0.0
 11
1076.693458867582
 21
495.6374639124335
 31
0.0
  0
LINE
  5
99E
330
B6B
100
AcDbEntity
  8
1
  6
Continuous
 62
   155
370
    70
100
AcDbLine
 10
1075.525550867582
 20
503.7872039124335
 30
0.0
 11
1075.525550867582
 21
495.6384479124335
 31
0.0
  0
CIRCLE
  5
99F
330
B6B
100
AcDbEntity
  8
1
  6
Continuous
 62
   155
370
    70
100
AcDbCircle
 10
1080.788289867582
 20
499.6114539124335
 30
0.0
 40
1.3065
  0
LINE
  5
9A0
330
B6B
100
AcDbEntity
  8
1
  6
CENTER
 62
    18
370
    35
100
AcDbLine
 10
1080.788289867582
 20
491.6114539124335
 30
0.0
 11
1080.788289867582
 21
507.6114539124335
 31
0.0
  0
LINE
  5
9A1
330
B6B
100
AcDbEntity
  8
1
  6
Continuous
 62
   155
370
    70
100
AcDbLine
 10
1077.723039867582
 20
491.4724789124335
 30
0.0
 11
1077.668924867582
 21
492.1759789124335
 31
0.0
  0
LINE
  5
9A2
330
B6B
100
AcDbEntity
  8
1
  6
Continuous
 62
   155
370
    70
100
AcDbLine
 10
1077.668924867582
 20
492.1759789124335
 30
0.0
 11
1077.180496867582
 21
492.1759789124335
 31
0.0
  0
LINE
  5
9A3
330
B6B
100
AcDbEntity
  8
1
  6
Continuous
 62
   155
370
    70
100
AcDbLine
 10
1080.663869867582
 20
496.0688289124334
 30
0.0
 11
1076.832611867582
 21
496.0688289124334
 31
0.0
  0
LINE
  5
9A4
330
B6B
100
AcDbEntity
  8
1
  6
Continuous
 62
   155
370
    70
100
AcDbLine
 10
1076.994958867582
 20
495.9767199124335
 30
0.0
 11
1080.755978867582
 21
495.9767199124335
 31
0.0
  0
LINE
  5
9A5
330
B6B
100
AcDbEntity
  8
1
  6
Continuous
 62
   155
370
    35
100
AcDbLine
 10
1080.663869867582
 20
496.0688289124334
 30
0.0
 11
1080.755978867582
 21
495.9767199124335
 31
0.0
  0
LINE
  5
9A6
330
B6B
100
AcDbEntity
  8
1
  6
Continuous
 62
   155
370
    70
100
AcDbLine
 10
1076.242660867582
 20
495.0775509124335
 30
0.0
 11
1076.018192867582
 21
495.0775509124335
 31
0.0
  0
LINE
  5
9A7
330
B6B
100
AcDbEntity
  8
1
  6
Continuous
 62
   155
370
    35
100
AcDbLine
 10
1076.242660867582
 20
495.0775509124335
 30
0.0
 11
1076.191636867582
 21
495.1354879124335
 31
0.0
  0
LINE
  5
9A8
330
B6B
100
AcDbEntity
  8
1
  6
Continuous
 62
   155
370
    35
100
AcDbLine
 10
1076.027839867582
 20
495.1354879124335
 30
0.0
 11
1076.018192867582
 21
495.0775509124335
 31
0.0
  0
LINE
  5
9A9
330
B6B
100
AcDbEntity
  8
1
  6
Continuous
 62
   155
370
    35
100
AcDbLine
 10
1076.693458867582
 20
495.6374639124335
 30
0.0
 11
1076.744481867582
 21
495.5795269124335
 31
0.0
  0
LINE
  5
9AA
330
B6B
100
AcDbEntity
  8
1
  6
Continuous
 62
   155
370
    70
100
AcDbLine
 10
1077.180496867582
 20
492.1759789124335
 30
0.0
 11
1076.994958867582
 21
490.1659789124334
 31
0.0
  0
LINE
  5
9AB
330
B6B
100
AcDbEntity
  8
1
  6
Continuous
 62
   155
370
    70
100
AcDbLine
 10
1077.180496867582
 20
495.0350209124335
 30
0.0
 11
1077.180496867582
 21
492.1759789124335
 31
0.0
  0
LINE
  5
9AC
330
B6B
100
AcDbEntity
  8
1
  6
Continuous
 62
   155
370
    70
100
AcDbLine
 10
1077.180496867582
 20
495.0350209124335
 30
0.0
 11
1076.994958867582
 21
495.1894539124335
 31
0.0
  0
LINE
  5
9AD
330
B6B
100
AcDbEntity
  8
1
  6
Continuous
 62
   155
370
    70
100
AcDbLine
 10
1076.994958867582
 20
495.9767199124335
 30
0.0
 11
1076.994958867582
 21
495.1894539124335
 31
0.0
  0
LINE
  5
9AE
330
B6B
100
AcDbEntity
  8
1
  6
Continuous
 62
   155
370
    70
100
AcDbLine
 10
1076.832611867582
 20
496.0688289124334
 30
0.0
 11
1076.994958867582
 21
495.9767199124335
 31
0.0
  0
LINE
  5
9AF
330
B6B
100
AcDbEntity
  8
1
  6
Continuous
 62
   155
370
    70
100
AcDbLine
 10
1076.027839867582
 20
495.1354879124335
 30
0.0
 11
1076.191636867582
 21
495.1354879124335
 31
0.0
  0
LINE
  5
9B0
330
B6B
100
AcDbEntity
  8
1
  6
Continuous
 62
   155
370
    35
100
AcDbLine
 10
1075.515902867582
 20
495.5805109124335
 30
0.0
 11
1075.525550867582
 21
495.6384479124335
 31
0.0
  0
ELLIPSE
  5
9B1
330
B6B
100
AcDbEntity
  8
1
  6
Continuous
 62
   155
370
    70
100
AcDbEllipse
 10
1076.241446867582
 20
495.5807409124334
 30
0.0
 11
-0.3329162475202768
 21
0.3780270264278457
 31
0.0
210
0.0
220
0.0
230
1.0
 40
0.9975710000000001
 41
2.420767832464225
 42
3.9891512198699
  0
ELLIPSE
  5
9B2
330
B6B
100
AcDbEntity
  8
1
  6
Continuous
 62
   155
370
    70
100
AcDbEllipse
 10
1076.018421867582
 20
495.5807409124334
 30
0.0
 11
-0.08265547107400054
 21
-0.4963739326004147
 31
0.0
210
0.0
220
0.0
230
1.0
 40
0.9985919999999999
 41
4.877622055837644
 42
6.447961671036538
  0
ELLIPSE
  5
9B3
330
B6B
100
AcDbEntity
  8
1
  6
Continuous
 62
   155
370
    70
100
AcDbEllipse
 10
1076.028069867582
 20
495.6386779124335
 30
0.0
 11
-0.08265547107400054
 21
-0.4963739326004147
 31
0.0
210
0.0
220
0.0
230
1.0
 40
0.9985919999999999
 41
4.877622055837158
 42
6.447961671036538
  0
ELLIPSE
  5
9B4
330
B6B
100
AcDbEntity
  8
1
  6
Continuous
 62
   155
370
    70
100
AcDbEllipse
 10
1076.190423867582
 20
495.6386779124335
 30
0.0
 11
-0.3329162475202768
 21
0.3780270264278457
 31
0.0
210
0.0
220
0.0
230
1.0
 40
0.9975710000000001
 41
2.420767832464225
 42
3.9891512198699
  0
LINE
  5
9B5
330
B6B
100
AcDbEntity
  8
1
  6
Continuous
 62
   155
370
    35
100
AcDbLine
 10
1077.192396867582
 20
503.5430719124334
 30
0.0
 11
1077.331550867582
 21
503.3343419124334
 31
0.0
  0
LINE
  5
9B6
330
B6B
100
AcDbEntity
  8
1
  6
Continuous
 62
   155
370
    35
100
AcDbLine
 10
1076.832611867582
 20
502.8347409124335
 30
0.0
 11
1076.693458867582
 21
503.0434709124335
 31
0.0
  0
LINE
  5
9B7
330
B6B
100
AcDbEntity
  8
1
  6
Continuous
 62
   155
370
    35
100
AcDbLine
 10
1076.494739867582
 20
504.8486019124335
 30
0.0
 11
1076.525436867582
 21
504.7872039124335
 31
0.0
  0
LINE
  5
9B8
330
B6B
100
AcDbEntity
  8
1
  6
Continuous
 62
   155
370
    35
100
AcDbLine
 10
1075.525550867582
 20
503.7872039124335
 30
0.0
 11
1075.494853867582
 21
503.8486019124335
 31
0.0
  0
ELLIPSE
  5
9B9
330
B6B
100
AcDbEntity
  8
1
  6
Continuous
 62
   155
370
    70
100
AcDbEllipse
 10
1077.333144867582
 20
502.8331449124335
 30
0.0
 11
-0.278308500233
 21
0.4174627503488554
 31
0.0
210
0.0
220
0.0
230
1.0
 40
0.996556
 41
5.696773773475613
 42
7.264385848197006
  0
ELLIPSE
  5
9BA
330
B6B
100
AcDbEntity
  8
1
  6
Continuous
 62
   155
370
    70
100
AcDbEllipse
 10
1076.494891867582
 20
503.8484499124335
 30
0.0
 11
-0.4472714922463025
 21
0.8946111164840569
 31
0.0
210
0.0
220
0.0
230
1.0
 40
0.99981
 41
5.819644307104086
 42
7.390288334854278
  0
ELLIPSE
  5
9BB
330
B6B
100
AcDbEntity
  8
1
  6
Continuous
 62
   155
370
    70
100
AcDbEllipse
 10
1076.525588867582
 20
503.7870519124335
 30
0.0
 11
-0.4472714922463025
 21
0.8946111164840569
 31
0.0
210
0.0
220
0.0
230
1.0
 40
0.99981
 41
5.819644307104086
 42
7.390288334854278
  0
ELLIPSE
  5
9BC
330
B6B
100
AcDbEntity
  8
1
  6
Continuous
 62
   155
370
    70
100
AcDbEllipse
 10
1077.193990867582
 20
503.0418749124335
 30
0.0
 11
-0.278308500233
 21
0.4174627503488554
 31
0.0
210
0.0
220
0.0
230
1.0
 40
0.996556
 41
5.696773773475613
 42
7.264385848197006
  0
LINE
  5
9BD
330
B6B
100
AcDbEntity
  8
1
  6
Continuous
 62
   155
370
    70
100
AcDbLine
 10
1084.272273867582
 20
499.4930149124335
 30
0.0
 11
1084.272273867582
 21
503.0908219124335
 31
0.0
  0
LINE
  5
9BE
330
B6B
100
AcDbEntity
  8
1
  6
Continuous
 62
   155
370
    35
100
AcDbLine
 10
1084.272273867582
 20
499.4930149124335
 30
0.0
 11
1084.180164867582
 21
499.5851239124335
 31
0.0
  0
LINE
  5
9BF
330
B6B
100
AcDbEntity
  8
1
  6
Continuous
 62
   155
370
    70
100
AcDbLine
 10
1084.180164867582
 20
503.3343419124334
 30
0.0
 11
1084.180164867582
 21
499.5851239124335
 31
0.0
  0
LINE
  5
9C0
330
B6B
100
AcDbEntity
  8
1
  6
Continuous
 62
   155
370
    70
100
AcDbLine
 10
1084.180164867582
 20
503.3343419124334
 30
0.0
 11
1084.272273867582
 21
503.0908219124335
 31
0.0
  0
LINE
  5
9C1
330
B6B
100
AcDbEntity
  8
1
  6
Continuous
 62
   155
370
    70
100
AcDbLine
 10
1102.793886867582
 20
492.6781069124335
 30
0.0
 11
1102.793886867582
 21
495.0350209124335
 31
0.0
  0
LINE
  5
9C2
330
B6B
100
AcDbEntity
  8
1
  6
Continuous
 62
   155
370
    70
100
AcDbLine
 10
1103.497386867582
 20
492.3713779124334
 30
0.0
 11
1103.497386867582
 21
495.0890729124335
 31
0.0
  0
LINE
  5
9C3
330
B6B
100
AcDbEntity
  8
1
  6
Continuous
 62
   155
370
    35
100
AcDbLine
 10
1103.497386867582
 20
492.3713779124334
 30
0.0
 11
1104.803886867582
 21
491.0648779124335
 31
0.0
  0
LINE
  5
9C4
330
B6B
100
AcDbEntity
  8
1
  6
Continuous
 62
   155
370
    70
100
AcDbLine
 10
1103.497386867582
 20
495.0890729124335
 30
0.0
 11
1104.803886867582
 21
495.1894539124335
 31
0.0
  0
LINE
  5
9C5
330
B6B
100
AcDbEntity
  8
1
  6
Continuous
 62
   155
370
    70
100
AcDbLine
 10
1102.848002867582
 20
495.0890729124335
 30
0.0
 11
1102.793886867582
 21
495.0350209124335
 31
0.0
  0
LINE
  5
9C6
330
B6B
100
AcDbEntity
  8
1
  6
Continuous
 62
   155
370
    70
100
AcDbLine
 10
1103.497386867582
 20
495.0890729124335
 30
0.0
 11
1102.848002867582
 21
495.0890729124335
 31
0.0
  0
LINE
  5
9C7
330
B6B
100
AcDbEntity
  8
1
  6
Continuous
 62
   155
370
    35
100
AcDbLine
 10
1103.904987867582
 20
490.1659789124334
 30
0.0
 11
1102.598487867582
 21
491.4724789124335
 31
0.0
  0
LINE
  5
9C8
330
B6B
100
AcDbEntity
  8
1
  6
Continuous
 62
   155
370
    70
100
AcDbLine
 10
1104.803886867582
 20
495.1894539124335
 30
0.0
 11
1104.803886867582
 21
491.0648779124335
 31
0.0
  0
ELLIPSE
  5
9C9
330
B6B
100
AcDbEntity
  8
1
  6
Continuous
 62
   155
370
    70
100
AcDbEllipse
 10
1102.291015867582
 20
492.6788499124335
 30
0.0
 11
0.3558463923599878
 21
-0.3558463923599993
 31
0.0
210
0.0
220
0.0
230
1.0
 40
0.998524
 41
5.498525696487946
 42
7.067844917871044
  0
ELLIPSE
  5
9CA
330
B6B
100
AcDbEntity
  8
1
  6
Continuous
 62
   155
370
    70
100
AcDbEllipse
 10
1102.373762867582
 20
492.5961029124335
 30
0.0
 11
-0.8703555308033429
 21
0.8703555308033687
 31
0.0
210
0.0
220
0.0
230
1.0
 40
0.816497
 41
2.456873450587465
 42
3.826311856592091
  0
ELLIPSE
  5
9CB
330
B6B
100
AcDbEntity
  8
1
  6
Continuous
 62
   155
370
    70
100
AcDbEllipse
 10
1103.680262867582
 20
491.2896029124335
 30
0.0
 11
-0.8703555308033429
 21
0.8703555308033687
 31
0.0
210
0.0
220
0.0
230
1.0
 40
0.816497
 41
2.456873450587465
 42
3.826311856592091
  0
LINE
  5
9CC
330
B6B
100
AcDbEntity
  8
1
  6
Continuous
 62
   155
370
    70
100
AcDbLine
 10
1077.411457867582
 20
514.4854539124335
 30
0.0
 11
1102.692877867582
 21
514.4854539124335
 31
0.0
  0
LINE
  5
9CD
330
B6B
100
AcDbEntity
  8
1
  6
Continuous
 62
   155
370
    35
100
AcDbLine
 10
1077.411457867582
 20
514.4854539124335
 30
0.0
 11
1077.494777867582
 21
514.4021339124334
 31
0.0
  0
LINE
  5
9CE
330
B6B
100
AcDbEntity
  8
1
  6
Continuous
 62
   155
370
    70
100
AcDbLine
 10
1102.898289867582
 20
514.4512489124335
 30
0.0
 11
1102.692877867582
 21
514.4854539124335
 31
0.0
  0
LINE
  5
9CF
330
B6B
100
AcDbEntity
  8
1
  6
Continuous
 62
   155
370
    35
100
AcDbLine
 10
1075.494853867582
 20
512.4022099124335
 30
0.0
 11
1075.411533867582
 21
512.4855299124335
 31
0.0
  0
ELLIPSE
  5
9D0
330
B6B
100
AcDbEntity
  8
1
  6
Continuous
 62
   155
370
    70
100
AcDbEllipse
 10
1077.411609867582
 20
512.4853779124335
 30
0.0
 11
1.414321262261755
 21
-1.414321262261801
 31
0.0
210
0.0
220
0.0
230
1.0
 40
0.999924
 41
2.356232566403301
 42
3.926952740776222
  0
ELLIPSE
  5
9D1
330
B6B
100
AcDbEntity
  8
1
  6
Continuous
 62
   155
370
    70
100
AcDbEllipse
 10
1077.494929867582
 20
512.4020579124335
 30
0.0
 11
1.414321262261755
 21
-1.414321262261801
 31
0.0
210
0.0
220
0.0
230
1.0
 40
0.999924
 41
2.356232566403301
 42
3.926952740776222
  0
LINE
  5
9D2
330
B6B
100
AcDbEntity
  8
1
  6
CENTER
 62
    18
370
    35
100
AcDbLine
 10
1077.888664867582
 20
509.6614539124334
 30
0.0
 11
1093.888664867582
 21
509.6614539124334
 31
0.0
  0
LINE
  5
9D3
330
B6B
100
AcDbEntity
  8
1
  6
Continuous
 62
     8
370
    70
100
AcDbLine
 10
1172.915045867582
 20
520.8354539124334
 30
0.0
 11
1172.915045867582
 21
362.8124539124335
 31
0.0
  0
LINE
  5
9D4
330
B6B
100
AcDbEntity
  8
1
  6
Continuous
 62
   155
370
    70
100
AcDbLine
 10
1137.239504867582
 20
491.4254779124335
 30
0.0
 11
1137.239504867582
 21
456.4670549124335
 31
0.0
  0
LINE
  5
9D5
330
B6B
100
AcDbEntity
  8
1
  6
Continuous
 62
   155
370
    70
100
AcDbLine
 10
1139.213615867582
 20
491.9279009124335
 30
0.0
 11
1139.213615867582
 21
455.9646319124334
 31
0.0
  0
LINE
  5
9D6
330
B6B
100
AcDbEntity
  8
1
  6
Continuous
 62
   155
370
    70
100
AcDbLine
 10
1136.318254867582
 20
455.9710739124334
 30
0.0
 11
1136.318254867582
 21
491.9214589124335
 31
0.0
  0
LINE
  5
9D7
330
B6B
100
AcDbEntity
  8
1
  6
Continuous
 62
   155
370
    70
100
AcDbLine
 10
1139.297818867582
 20
453.9546319124335
 30
0.0
 11
1139.297818867582
 21
493.9379009124335
 31
0.0
  0
LINE
  5
9D8
330
B6B
100
AcDbEntity
  8
1
  6
Continuous
 62
   155
370
    70
100
AcDbLine
 10
1135.229504867582
 20
454.8823239124335
 30
0.0
 11
1135.229504867582
 21
493.0102089124335
 31
0.0
  0
LINE
  5
9D9
330
B6B
100
AcDbEntity
  8
1
  6
Continuous
 62
   155
370
    70
100
AcDbLine
 10
1117.068789867582
 20
476.2954539124335
 30
0.0
 11
1117.068789867582
 21
471.6222039124335
 31
0.0
  0
LINE
  5
9DA
330
B6B
100
AcDbEntity
  8
1
  6
Continuous
 62
   155
370
    70
100
AcDbLine
 10
1166.565045867582
 20
512.4855299124335
 30
0.0
 11
1166.565045867582
 21
371.1623779124334
 31
0.0
  0
LINE
  5
9DB
330
B6B
100
AcDbEntity
  8
1
  6
Continuous
 62
   155
370
    70
100
AcDbLine
 10
1166.460676867582
 20
495.5805109124335
 30
0.0
 11
1166.460676867582
 21
388.0673969124335
 31
0.0
  0
LINE
  5
9DC
330
B6B
100
AcDbEntity
  8
1
  6
Continuous
 62
   155
370
    70
100
AcDbLine
 10
1164.981620867582
 20
495.9767199124335
 30
0.0
 11
1164.981620867582
 21
387.6711879124335
 31
0.0
  0
LINE
  5
9DD
330
B6B
100
AcDbEntity
  8
1
  6
Continuous
 62
   155
370
    70
100
AcDbLine
 10
1165.232097867582
 20
495.5795269124335
 30
0.0
 11
1165.232097867582
 21
388.0683809124334
 31
0.0
  0
DIMENSION
  5
9DE
330
B6B
100
AcDbEntity
  8
MiniCADViewLayer
 62
     3
370
    70
100
AcDbDimension
280
     0
 10
1146.003111496819
 20
453.9546319124335
 30
0.0
 11
1146.003111496819
 21
473.9462664124335
 31
0.0
 70
    32
  1
39.98
 71
     5
 42
-1.0
 73
     0
 74
     0
 75
     0
  3
QCADDimStyle
100
AcDbAlignedDimension
 13
1139.297818867582
 23
453.9546319124335
 33
0.0
 14
1139.297818867582
 24
493.9379009124335
 34
0.0
 50
90.0
100
AcDbRotatedDimension
  0
DIMENSION
  5
9DF
330
B6B
100
AcDbEntity
  8
MiniCADViewLayer
 62
     3
370
    70
100
AcDbDimension
280
     0
 10
1161.188289867582
 20
441.8239539124335
 30
0.0
 11
1161.188289867582
 21
441.8239539124335
 31
0.0
 70
    32
  1
115.58
 71
     5
 42
-1.0
 73
     0
 74
     0
 75
     0
  3
QCADDimStyle
100
AcDbAlignedDimension
 13
1161.188289867582
 23
384.0364539124334
 33
0.0
 14
1161.188289867582
 24
499.6114539124335
 34
0.0
 50
90.0
100
AcDbRotatedDimension
  0
DIMENSION
  5
9E0
330
B6B
100
AcDbEntity
  8
PUB_DIM尺寸
  6
Continuous
 62
     3
 48
2.731535251859896
370
    70
100
AcDbDimension
280
     0
 10
1150.457015435503
 20
380.5570859124335
 30
0.0
 11
1150.457015435503
 21
441.8239539124335
 31
0.0
 70
    32
 71
     5
 42
-1.0
 73
     0
 74
     0
 75
     0
  3
QCADDimStyle
100
AcDbAlignedDimension
 13
1157.704305867582
 23
380.5570859124335
 33
0.0
 14
1157.704305867582
 24
503.0908219124335
 34
0.0
 50
90.0
100
AcDbRotatedDimension
  0
LINE
  5
9E1
330
B6B
100
AcDbEntity
  8
1
  6
Continuous
 62
   155
370
    70
100
AcDbLine
 10
1137.239504867582
 20
392.2224299124335
 30
0.0
 11
1137.239504867582
 21
427.1808529124335
 31
0.0
  0
LINE
  5
9E2
330
B6B
100
AcDbEntity
  8
1
  6
Continuous
 62
   155
370
    70
100
AcDbLine
 10
1136.318254867582
 20
427.6768339124335
 30
0.0
 11
1136.318254867582
 21
391.7264489124335
 31
0.0
  0
LINE
  5
9E3
330
B6B
100
AcDbEntity
  8
1
  6
Continuous
 62
   155
370
    70
100
AcDbLine
 10
1139.213615867582
 20
391.7200069124335
 30
0.0
 11
1139.213615867582
 21
427.6832759124335
 31
0.0
  0
LINE
  5
9E4
330
B6B
100
AcDbEntity
  8
1
  6
Continuous
 62
   155
370
    70
100
AcDbLine
 10
1135.229504867582
 20
428.7655839124334
 30
0.0
 11
1135.229504867582
 21
390.6376989124335
 31
0.0
  0
LINE
  5
9E5
330
B6B
100
AcDbEntity
  8
1
  6
Continuous
 62
   155
370
    70
100
AcDbLine
 10
1139.297818867582
 20
429.6932759124335
 30
0.0
 11
1139.297818867582
 21
389.7100069124335
 31
0.0
  0
LINE
  5
9E6
330
B6B
100
AcDbEntity
  8
1
  6
Continuous
 62
   155
370
    70
100
AcDbLine
 10
1139.283701867582
 20
369.1624539124335
 30
0.0
 11
1164.565121867582
 21
369.1624539124335
 31
0.0
  0
LINE
  5
9E7
330
B6B
100
AcDbEntity
  8
1
  6
Continuous
 62
   155
370
    70
100
AcDbLine
 10
1137.741928867582
 20
391.7200069124335
 30
0.0
 11
1139.213615867582
 21
391.7200069124335
 31
0.0
  0
LINE
  5
9E8
330
B6B
100
AcDbEntity
  8
1
  6
Continuous
 62
   155
370
    35
100
AcDbLine
 10
1135.229504867582
 20
390.6376989124335
 30
0.0
 11
1136.318254867582
 21
391.7264489124335
 31
0.0
  0
LINE
  5
9E9
330
B6B
100
AcDbEntity
  8
1
  6
Continuous
 62
   155
370
    70
100
AcDbLine
 10
1139.128576867582
 20
390.7987569124335
 30
0.0
 11
1137.245946867582
 21
390.7987569124335
 31
0.0
  0
LINE
  5
9EA
330
B6B
100
AcDbEntity
  8
1
  6
Continuous
 62
   155
370
    35
100
AcDbLine
 10
1137.245946867582
 20
390.7987569124335
 30
0.0
 11
1136.157196867582
 21
389.7100069124335
 31
0.0
  0
LINE
  5
9EB
330
B6B
100
AcDbEntity
  8
1
  6
Continuous
 62
   155
370
    70
100
AcDbLine
 10
1139.213615867582
 20
391.7200069124335
 30
0.0
 11
1139.297818867582
 21
389.7100069124335
 31
0.0
  0
LINE
  5
9EC
330
B6B
100
AcDbEntity
  8
1
  6
Continuous
 62
   155
370
    70
100
AcDbLine
 10
1139.128576867582
 20
390.7987569124335
 30
0.0
 11
1139.213615867582
 21
391.7200069124335
 31
0.0
  0
LINE
  5
9ED
330
B6B
100
AcDbEntity
  8
1
  6
Continuous
 62
   155
370
    70
100
AcDbLine
 10
1139.297818867582
 20
389.7100069124335
 30
0.0
 11
1136.157196867582
 21
389.7100069124335
 31
0.0
  0
LINE
  5
9EE
330
B6B
100
AcDbEntity
  8
1
  6
Continuous
 62
   155
370
    70
100
AcDbLine
 10
1139.078289867582
 20
369.1966589124335
 30
0.0
 11
1139.283701867582
 21
369.1624539124335
 31
0.0
  0
ELLIPSE
  5
9EF
330
B6B
100
AcDbEntity
  8
1
  6
Continuous
 62
   155
370
    70
100
AcDbEllipse
 10
1137.742081867582
 20
392.2225839124335
 30
0.0
 11
-0.3554294000577093
 21
-0.3554294000577198
 31
0.0
210
0.0
220
0.0
230
1.0
 40
0.9996950000000001
 41
5.49793943702954
 42
7.068431177329516
  0
ELLIPSE
  5
9F0
330
B6B
100
AcDbEntity
  8
1
  6
Continuous
 62
   155
370
    70
100
AcDbEllipse
 10
1137.407004867582
 20
391.8875069124335
 30
0.0
 11
-0.8248418409004706
 21
-0.8248418409004952
 31
0.0
210
0.0
220
0.0
230
1.0
 40
0.8615500000000001
 41
5.572024093067037
 42
6.994346521292671
  0
ELLIPSE
  5
9F1
330
B6B
100
AcDbEntity
  8
1
  6
Continuous
 62
   155
370
    70
100
AcDbEllipse
 10
1136.318254867582
 20
390.7987569124335
 30
0.0
 11
-0.8248418409004706
 21
-0.8248418409004952
 31
0.0
210
0.0
220
0.0
230
1.0
 40
0.8615500000000001
 41
5.572024093067037
 42
6.994346521292671
  0
LINE
  5
9F2
330
B6B
100
AcDbEntity
  8
1
  6
Continuous
 62
   155
370
    70
100
AcDbLine
 10
1164.981620867582
 20
387.6711879124335
 30
0.0
 11
1161.220600867582
 21
387.6711879124335
 31
0.0
  0
LINE
  5
9F3
330
B6B
100
AcDbEntity
  8
1
  6
Continuous
 62
   155
370
    70
100
AcDbLine
 10
1161.312709867582
 20
387.5790789124335
 30
0.0
 11
1165.143966867582
 21
387.5790789124335
 31
0.0
  0
LINE
  5
9F4
330
B6B
100
AcDbEntity
  8
1
  6
Continuous
 62
   155
370
    70
100
AcDbLine
 10
1164.645028867582
 20
380.3135659124335
 30
0.0
 11
1157.796414867582
 21
380.3135659124335
 31
0.0
  0
LINE
  5
9F5
330
B6B
100
AcDbEntity
  8
1
  6
CENTER
 62
    18
370
    35
100
AcDbLine
 10
1153.188289867582
 20
384.0364539124334
 30
0.0
 11
1169.188289867582
 21
384.0364539124334
 31
0.0
  0
LINE
  5
9F6
330
B6B
100
AcDbEntity
  8
1
  6
Continuous
 62
   155
370
    70
100
AcDbLine
 10
1157.704305867582
 20
384.1548929124335
 30
0.0
 11
1157.704305867582
 21
380.5570859124335
 31
0.0
  0
LINE
  5
9F7
330
B6B
100
AcDbEntity
  8
1
  6
Continuous
 62
   155
370
    35
100
AcDbLine
 10
1157.704305867582
 20
384.1548929124335
 30
0.0
 11
1157.796414867582
 21
384.0627839124335
 31
0.0
  0
LINE
  5
9F8
330
B6B
100
AcDbEntity
  8
1
  6
Continuous
 62
   155
370
    35
100
AcDbLine
 10
1161.312709867582
 20
387.5790789124335
 30
0.0
 11
1161.220600867582
 21
387.6711879124335
 31
0.0
  0
LINE
  5
9F9
330
B6B
100
AcDbEntity
  8
1
  6
Continuous
 62
   155
370
    70
100
AcDbLine
 10
1157.796414867582
 20
380.3135659124335
 30
0.0
 11
1157.796414867582
 21
384.0627839124335
 31
0.0
  0
LINE
  5
9FA
330
B6B
100
AcDbEntity
  8
1
  6
Continuous
 62
   155
370
    70
100
AcDbLine
 10
1157.796414867582
 20
380.3135659124335
 30
0.0
 11
1157.704305867582
 21
380.5570859124335
 31
0.0
  0
CIRCLE
  5
9FB
330
B6B
100
AcDbEntity
  8
1
  6
Continuous
 62
   155
370
    70
100
AcDbCircle
 10
1161.188289867582
 20
384.0364539124334
 30
0.0
 40
1.3065
  0
CIRCLE
  5
9FC
330
B6B
100
AcDbEntity
  8
1
  6
Continuous
 62
   155
370
    70
100
AcDbCircle
 10
1156.087914867582
 20
373.9864539124335
 30
0.0
 40
2.26125
  0
ELLIPSE
  5
9FD
330
B6B
100
AcDbEntity
  8
1
  6
Continuous
 62
   155
370
    70
100
AcDbEllipse
 10
1161.223011867582
 20
384.1524819124335
 30
0.0
 11
2.488953030700711
 21
-2.488953030700792
 31
0.0
210
0.0
220
0.0
230
1.0
 40
0.999315
 41
2.356537106530508
 42
3.926648200649042
  0
ELLIPSE
  5
9FE
330
B6B
100
AcDbEntity
  8
1
  6
Continuous
 62
   155
370
    70
100
AcDbEllipse
 10
1161.315120867582
 20
384.0603729124335
 30
0.0
 11
2.488953030700711
 21
-2.488953030700792
 31
0.0
210
0.0
220
0.0
230
1.0
 40
0.999315
 41
2.356537106530508
 42
3.926648200649204
  0
LINE
  5
9FF
330
B6B
100
AcDbEntity
  8
1
  6
CENTER
 62
    18
370
    35
100
AcDbLine
 10
1156.087914867582
 20
365.9864539124335
 30
0.0
 11
1156.087914867582
 21
381.9864539124335
 31
0.0
  0
LINE
  5
A00
330
B6B
100
AcDbEntity
  8
1
  6
CENTER
 62
    18
370
    35
100
AcDbLine
 10
1148.087914867582
 20
373.9864539124335
 30
0.0
 11
1164.087914867582
 21
373.9864539124335
 31
0.0
  0
LINE
  5
A01
330
B6B
100
AcDbEntity
  8
1
  6
CENTER
 62
    18
370
    35
100
AcDbLine
 10
1161.188289867582
 20
376.0364539124334
 30
0.0
 11
1161.188289867582
 21
392.0364539124334
 31
0.0
  0
LINE
  5
A02
330
B6B
100
AcDbEntity
  8
1
  6
Continuous
 62
   155
370
    70
100
AcDbLine
 10
1165.143966867582
 20
387.5790789124335
 30
0.0
 11
1165.143966867582
 21
380.8131669124335
 31
0.0
  0
LINE
  5
A03
330
B6B
100
AcDbEntity
  8
1
  6
Continuous
 62
   155
370
    70
100
AcDbLine
 10
1166.451028867582
 20
379.8607039124335
 30
0.0
 11
1166.451028867582
 21
388.0094599124334
 31
0.0
  0
LINE
  5
A04
330
B6B
100
AcDbEntity
  8
1
  6
Continuous
 62
   155
370
    70
100
AcDbLine
 10
1165.283120867582
 20
380.6044369124335
 30
0.0
 11
1165.283120867582
 21
388.0104439124335
 31
0.0
  0
LINE
  5
A05
330
B6B
100
AcDbEntity
  8
1
  6
Continuous
 62
   155
370
    35
100
AcDbLine
 10
1164.565121867582
 20
369.1624539124335
 30
0.0
 11
1164.481801867582
 21
369.2457739124335
 31
0.0
  0
LINE
  5
A06
330
B6B
100
AcDbEntity
  8
1
  6
Continuous
 62
   155
370
    70
100
AcDbLine
 10
1166.481725867582
 20
371.2456979124335
 30
0.0
 11
1166.481725867582
 21
379.7993059124335
 31
0.0
  0
LINE
  5
A07
330
B6B
100
AcDbEntity
  8
1
  6
Continuous
 62
   155
370
    35
100
AcDbLine
 10
1166.481725867582
 20
371.2456979124335
 30
0.0
 11
1166.565045867582
 21
371.1623779124334
 31
0.0
  0
LINE
  5
A08
330
B6B
100
AcDbEntity
  8
1
  6
Continuous
 62
   155
370
    35
100
AcDbLine
 10
1166.451028867582
 20
379.8607039124335
 30
0.0
 11
1166.481725867582
 21
379.7993059124335
 31
0.0
  0
LINE
  5
A09
330
B6B
100
AcDbEntity
  8
1
  6
Continuous
 62
   155
370
    35
100
AcDbLine
 10
1165.143966867582
 20
380.8131669124335
 30
0.0
 11
1165.283120867582
 21
380.6044369124335
 31
0.0
  0
LINE
  5
A0A
330
B6B
100
AcDbEntity
  8
1
  6
Continuous
 62
   155
370
    35
100
AcDbLine
 10
1164.784182867582
 20
380.1048359124335
 30
0.0
 11
1164.645028867582
 21
380.3135659124335
 31
0.0
  0
LINE
  5
A0B
330
B6B
100
AcDbEntity
  8
1
  6
Continuous
 62
   155
370
    35
100
AcDbLine
 10
1165.481839867582
 20
378.7993059124335
 30
0.0
 11
1165.451142867582
 21
378.8607039124335
 31
0.0
  0
ELLIPSE
  5
A0C
330
B6B
100
AcDbEntity
  8
1
  6
Continuous
 62
   155
370
    70
100
AcDbEllipse
 10
1164.564969867582
 20
371.1625299124335
 30
0.0
 11
1.414321262261755
 21
-1.414321262261801
 31
0.0
210
0.0
220
0.0
230
1.0
 40
0.999924
 41
5.497825219993094
 42
7.068545394366016
  0
ELLIPSE
  5
A0D
330
B6B
100
AcDbEntity
  8
1
  6
Continuous
 62
   155
370
    70
100
AcDbEllipse
 10
1164.481649867582
 20
371.2458499124335
 30
0.0
 11
1.414321262261755
 21
-1.414321262261801
 31
0.0
210
0.0
220
0.0
230
1.0
 40
0.999924
 41
5.497825219993094
 42
7.068545394366016
  0
ELLIPSE
  5
A0E
330
B6B
100
AcDbEntity
  8
1
  6
Continuous
 62
   155
370
    70
100
AcDbEllipse
 10
1164.643434867582
 20
380.8147629124335
 30
0.0
 11
0.278308500233
 21
-0.4174627503488554
 31
0.0
210
0.0
220
0.0
230
1.0
 40
0.996556
 41
5.696773773475613
 42
7.264385848197006
  0
ELLIPSE
  5
A0F
330
B6B
100
AcDbEntity
  8
1
  6
Continuous
 62
   155
370
    70
100
AcDbEllipse
 10
1165.481687867582
 20
379.7994579124335
 30
0.0
 11
-0.4472714922463025
 21
0.8946111164840569
 31
0.0
210
0.0
220
0.0
230
1.0
 40
0.99981
 41
2.678051653514292
 42
4.248695681264483
  0
ELLIPSE
  5
A10
330
B6B
100
AcDbEntity
  8
1
  6
Continuous
 62
   155
370
    70
100
AcDbEllipse
 10
1165.450990867582
 20
379.8608559124335
 30
0.0
 11
-0.4472714922463025
 21
0.8946111164840569
 31
0.0
210
0.0
220
0.0
230
1.0
 40
0.99981
 41
2.678051653514292
 42
4.248695681264483
  0
ELLIPSE
  5
A11
330
B6B
100
AcDbEntity
  8
1
  6
Continuous
 62
   155
370
    70
100
AcDbEllipse
 10
1164.782588867582
 20
380.6060329124335
 30
0.0
 11
0.278308500233
 21
-0.4174627503488554
 31
0.0
210
0.0
220
0.0
230
1.0
 40
0.996556
 41
5.696773773475613
 42
7.264385848197006
  0
LINE
  5
A12
330
B6B
100
AcDbEntity
  8
1
  6
Continuous
 62
   155
370
    70
100
AcDbLine
 10
1165.958386867582
 20
388.5703569124335
 30
0.0
 11
1165.733918867582
 21
388.5703569124335
 31
0.0
  0
LINE
  5
A13
330
B6B
100
AcDbEntity
  8
1
  6
Continuous
 62
   155
370
    70
100
AcDbLine
 10
1165.143966867582
 20
387.5790789124335
 30
0.0
 11
1164.981620867582
 21
387.6711879124335
 31
0.0
  0
LINE
  5
A14
330
B6B
100
AcDbEntity
  8
1
  6
Continuous
 62
   155
370
    35
100
AcDbLine
 10
1165.283120867582
 20
388.0104439124335
 30
0.0
 11
1165.232097867582
 21
388.0683809124334
 31
0.0
  0
LINE
  5
A15
330
B6B
100
AcDbEntity
  8
1
  6
Continuous
 62
   155
370
    35
100
AcDbLine
 10
1165.733918867582
 20
388.5703569124335
 30
0.0
 11
1165.784941867582
 21
388.5124199124335
 31
0.0
  0
LINE
  5
A16
330
B6B
100
AcDbEntity
  8
1
  6
Continuous
 62
   155
370
    35
100
AcDbLine
 10
1166.460676867582
 20
388.0673969124335
 30
0.0
 11
1166.451028867582
 21
388.0094599124334
 31
0.0
  0
LINE
  5
A17
330
B6B
100
AcDbEntity
  8
1
  6
Continuous
 62
   155
370
    35
100
AcDbLine
 10
1165.948739867582
 20
388.5124199124335
 30
0.0
 11
1165.958386867582
 21
388.5703569124335
 31
0.0
  0
LINE
  5
A18
330
B6B
100
AcDbEntity
  8
1
  6
Continuous
 62
   155
370
    70
100
AcDbLine
 10
1165.784941867582
 20
388.5124199124335
 30
0.0
 11
1165.948739867582
 21
388.5124199124335
 31
0.0
  0
ELLIPSE
  5
A19
330
B6B
100
AcDbEntity
  8
1
  6
Continuous
 62
   155
370
    70
100
AcDbEllipse
 10
1165.735132867582
 20
388.0671669124335
 30
0.0
 11
-0.3329162475202768
 21
0.3780270264278457
 31
0.0
210
0.0
220
0.0
230
1.0
 40
0.9975710000000001
 41
5.562360486054018
 42
7.130743873459694
  0
ELLIPSE
  5
A1A
330
B6B
100
AcDbEntity
  8
1
  6
Continuous
 62
   155
370
    70
100
AcDbEllipse
 10
1165.958157867582
 20
388.0671669124335
 30
0.0
 11
0.08265547107403076
 21
0.4963739326004097
 31
0.0
210
0.0
220
0.0
230
1.0
 40
0.9985919999999999
 41
4.877622055837703
 42
6.447961671036599
  0
ELLIPSE
  5
A1B
330
B6B
100
AcDbEntity
  8
1
  6
Continuous
 62
   155
370
    70
100
AcDbEllipse
 10
1165.948509867582
 20
388.0092299124335
 30
0.0
 11
0.08265547107403076
 21
0.4963739326004097
 31
0.0
210
0.0
220
0.0
230
1.0
 40
0.9985919999999999
 41
4.877622055837703
 42
6.447961671036599
  0
ELLIPSE
  5
A1C
330
B6B
100
AcDbEntity
  8
1
  6
Continuous
 62
   155
370
    70
100
AcDbEllipse
 10
1165.786155867582
 20
388.0092299124335
 30
0.0
 11
-0.3329162475202768
 21
0.3780270264278457
 31
0.0
210
0.0
220
0.0
230
1.0
 40
0.9975710000000001
 41
5.562360486054018
 42
7.130743873459694
  0
LINE
  5
A1D
330
B6B
100
AcDbEntity
  8
1
  6
Continuous
 62
   155
370
    70
100
AcDbLine
 10
1137.741928867582
 20
427.6832759124335
 30
0.0
 11
1139.213615867582
 21
427.6832759124335
 31
0.0
  0
LINE
  5
A1E
330
B6B
100
AcDbEntity
  8
1
  6
Continuous
 62
   155
370
    35
100
AcDbLine
 10
1136.318254867582
 20
427.6768339124335
 30
0.0
 11
1135.229504867582
 21
428.7655839124334
 31
0.0
  0
LINE
  5
A1F
330
B6B
100
AcDbEntity
  8
1
  6
Continuous
 62
   155
370
    35
100
AcDbLine
 10
1136.157196867582
 20
429.6932759124335
 30
0.0
 11
1137.245946867582
 21
428.6045259124335
 31
0.0
  0
LINE
  5
A20
330
B6B
100
AcDbEntity
  8
1
  6
Continuous
 62
   155
370
    70
100
AcDbLine
 10
1139.128576867582
 20
428.6045259124335
 30
0.0
 11
1137.245946867582
 21
428.6045259124335
 31
0.0
  0
LINE
  5
A21
330
B6B
100
AcDbEntity
  8
1
  6
Continuous
 62
   155
370
    70
100
AcDbLine
 10
1139.128576867582
 20
428.6045259124335
 30
0.0
 11
1139.213615867582
 21
427.6832759124335
 31
0.0
  0
LINE
  5
A22
330
B6B
100
AcDbEntity
  8
1
  6
Continuous
 62
   155
370
    70
100
AcDbLine
 10
1139.213615867582
 20
427.6832759124335
 30
0.0
 11
1139.297818867582
 21
429.6932759124335
 31
0.0
  0
LINE
  5
A23
330
B6B
100
AcDbEntity
  8
1
  6
Continuous
 62
   155
370
    70
100
AcDbLine
 10
1139.297818867582
 20
429.6932759124335
 30
0.0
 11
1136.157196867582
 21
429.6932759124335
 31
0.0
  0
LINE
  5
A24
330
B6B
100
AcDbEntity
  8
1
  6
Continuous
 62
   155
370
    70
100
AcDbLine
 10
1117.068789867582
 20
407.3524539124335
 30
0.0
 11
1117.068789867582
 21
412.0257039124335
 31
0.0
  0
ELLIPSE
  5
A25
330
B6B
100
AcDbEntity
  8
1
  6
Continuous
 62
   155
370
    70
100
AcDbEllipse
 10
1137.742081867582
 20
427.1806989124335
 30
0.0
 11
-0.3554294000577093
 21
0.3554294000577198
 31
0.0
210
0.0
220
0.0
230
1.0
 40
0.9996950000000001
 41
5.497939437029656
 42
7.068431177329632
  0
ELLIPSE
  5
A26
330
B6B
100
AcDbEntity
  8
1
  6
Continuous
 62
   155
370
    70
100
AcDbEllipse
 10
1137.407004867582
 20
427.5157759124335
 30
0.0
 11
-0.8248418409004779
 21
0.8248418409005024
 31
0.0
210
0.0
220
0.0
230
1.0
 40
0.86155
 41
5.572024093066494
 42
6.994346521292136
  0
ELLIPSE
  5
A27
330
B6B
100
AcDbEntity
  8
1
  6
Continuous
 62
   155
370
    70
100
AcDbEllipse
 10
1136.318254867582
 20
428.6045259124335
 30
0.0
 11
-0.8248418409004779
 21
0.8248418409005024
 31
0.0
210
0.0
220
0.0
230
1.0
 40
0.86155
 41
5.572024093066494
 42
6.994346521292136
  0
LINE
  5
A28
330
B6B
100
AcDbEntity
  8
1
  6
Continuous
 62
   155
370
    70
100
AcDbLine
 10
1137.741928867582
 20
455.9646319124334
 30
0.0
 11
1139.213615867582
 21
455.9646319124334
 31
0.0
  0
LINE
  5
A29
330
B6B
100
AcDbEntity
  8
1
  6
Continuous
 62
   155
370
    35
100
AcDbLine
 10
1135.229504867582
 20
454.8823239124335
 30
0.0
 11
1136.318254867582
 21
455.9710739124334
 31
0.0
  0
LINE
  5
A2A
330
B6B
100
AcDbEntity
  8
1
  6
Continuous
 62
   155
370
    70
100
AcDbLine
 10
1139.128576867582
 20
455.0433819124335
 30
0.0
 11
1137.245946867582
 21
455.0433819124335
 31
0.0
  0
LINE
  5
A2B
330
B6B
100
AcDbEntity
  8
1
  6
Continuous
 62
   155
370
    35
100
AcDbLine
 10
1137.245946867582
 20
455.0433819124335
 30
0.0
 11
1136.157196867582
 21
453.9546319124335
 31
0.0
  0
LINE
  5
A2C
330
B6B
100
AcDbEntity
  8
1
  6
Continuous
 62
   155
370
    70
100
AcDbLine
 10
1139.213615867582
 20
455.9646319124334
 30
0.0
 11
1139.297818867582
 21
453.9546319124335
 31
0.0
  0
LINE
  5
A2D
330
B6B
100
AcDbEntity
  8
1
  6
Continuous
 62
   155
370
    70
100
AcDbLine
 10
1139.128576867582
 20
455.0433819124335
 30
0.0
 11
1139.213615867582
 21
455.9646319124334
 31
0.0
  0
LINE
  5
A2E
330
B6B
100
AcDbEntity
  8
1
  6
Continuous
 62
   155
370
    70
100
AcDbLine
 10
1139.297818867582
 20
453.9546319124335
 30
0.0
 11
1136.157196867582
 21
453.9546319124335
 31
0.0
  0
ELLIPSE
  5
A2F
330
B6B
100
AcDbEntity
  8
1
  6
Continuous
 62
   155
370
    70
100
AcDbEllipse
 10
1137.742081867582
 20
456.4672089124335
 30
0.0
 11
-0.3554294000577093
 21
-0.3554294000577198
 31
0.0
210
0.0
220
0.0
230
1.0
 40
0.9996950000000001
 41
5.49793943702954
 42
7.068431177329516
  0
ELLIPSE
  5
A30
330
B6B
100
AcDbEntity
  8
1
  6
Continuous
 62
   155
370
    70
100
AcDbEllipse
 10
1137.407004867582
 20
456.1321319124335
 30
0.0
 11
0.8248418409004138
 21
0.8248418409004405
 31
0.0
210
0.0
220
0.0
230
1.0
 40
0.86155
 41
2.430431439476798
 42
3.85275386770264
  0
ELLIPSE
  5
A31
330
B6B
100
AcDbEntity
  8
1
  6
Continuous
 62
   155
370
    70
100
AcDbEllipse
 10
1136.318254867582
 20
455.0433819124335
 30
0.0
 11
0.8248418409004138
 21
0.8248418409004405
 31
0.0
210
0.0
220
0.0
230
1.0
 40
0.86155
 41
2.43043143947685
 42
3.85275386770286
  0
LINE
  5
A32
330
B6B
100
AcDbEntity
  8
1
  6
Continuous
 62
   155
370
    70
100
AcDbLine
 10
1139.283701867582
 20
514.4854539124335
 30
0.0
 11
1164.565121867582
 21
514.4854539124335
 31
0.0
  0
LINE
  5
A33
330
B6B
100
AcDbEntity
  8
1
  6
Continuous
 62
   155
370
    70
100
AcDbLine
 10
1137.741928867582
 20
491.9279009124335
 30
0.0
 11
1139.213615867582
 21
491.9279009124335
 31
0.0
  0
LINE
  5
A34
330
B6B
100
AcDbEntity
  8
1
  6
Continuous
 62
   155
370
    70
100
AcDbLine
 10
1139.128576867582
 20
492.8491509124335
 30
0.0
 11
1137.245946867582
 21
492.8491509124335
 31
0.0
  0
LINE
  5
A35
330
B6B
100
AcDbEntity
  8
1
  6
Continuous
 62
   155
370
    70
100
AcDbLine
 10
1139.128576867582
 20
492.8491509124335
 30
0.0
 11
1139.213615867582
 21
491.9279009124335
 31
0.0
  0
LINE
  5
A36
330
B6B
100
AcDbEntity
  8
1
  6
Continuous
 62
   155
370
    35
100
AcDbLine
 10
1136.157196867582
 20
493.9379009124335
 30
0.0
 11
1137.245946867582
 21
492.8491509124335
 31
0.0
  0
LINE
  5
A37
330
B6B
100
AcDbEntity
  8
1
  6
Continuous
 62
   155
370
    70
100
AcDbLine
 10
1139.213615867582
 20
491.9279009124335
 30
0.0
 11
1139.297818867582
 21
493.9379009124335
 31
0.0
  0
LINE
  5
A38
330
B6B
100
AcDbEntity
  8
1
  6
Continuous
 62
   155
370
    35
100
AcDbLine
 10
1136.318254867582
 20
491.9214589124335
 30
0.0
 11
1135.229504867582
 21
493.0102089124335
 31
0.0
  0
LINE
  5
A39
330
B6B
100
AcDbEntity
  8
1
  6
Continuous
 62
   155
370
    70
100
AcDbLine
 10
1139.297818867582
 20
493.9379009124335
 30
0.0
 11
1136.157196867582
 21
493.9379009124335
 31
0.0
  0
LINE
  5
A3A
330
B6B
100
AcDbEntity
  8
1
  6
Continuous
 62
   155
370
    70
100
AcDbLine
 10
1139.078289867582
 20
514.4512489124335
 30
0.0
 11
1139.283701867582
 21
514.4854539124335
 31
0.0
  0
ELLIPSE
  5
A3B
330
B6B
100
AcDbEntity
  8
1
  6
Continuous
 62
   155
370
    70
100
AcDbEllipse
 10
1137.742081867582
 20
491.4253239124334
 30
0.0
 11
-0.3554294000577093
 21
0.3554294000577198
 31
0.0
210
0.0
220
0.0
230
1.0
 40
0.9996950000000001
 41
5.497939437029656
 42
7.068431177329632
  0
ELLIPSE
  5
A3C
330
B6B
100
AcDbEntity
  8
1
  6
Continuous
 62
   155
370
    70
100
AcDbEllipse
 10
1137.407004867582
 20
491.7604009124335
 30
0.0
 11
-0.8248418409004084
 21
0.8248418409004328
 31
0.0
210
0.0
220
0.0
230
1.0
 40
0.8615500000000001
 41
5.572024093066736
 42
6.994346521292528
  0
ELLIPSE
  5
A3D
330
B6B
100
AcDbEntity
  8
1
  6
Continuous
 62
   155
370
    70
100
AcDbEllipse
 10
1136.318254867582
 20
492.8491509124335
 30
0.0
 11
-0.8248418409004084
 21
0.8248418409004328
 31
0.0
210
0.0
220
0.0
230
1.0
 40
0.8615500000000001
 41
5.572024093066736
 42
6.994346521292528
  0
LINE
  5
A3E
330
B6B
100
AcDbEntity
  8
1
  6
Continuous
 62
   155
370
    70
100
AcDbLine
 10
1166.481725867582
 20
512.4022099124335
 30
0.0
 11
1166.481725867582
 21
503.8486019124335
 31
0.0
  0
CIRCLE
  5
A3F
330
B6B
100
AcDbEntity
  8
1
  6
Continuous
 62
   155
370
    70
100
AcDbCircle
 10
1156.087914867582
 20
509.6614539124334
 30
0.0
 40
2.26125
  0
LINE
  5
A40
330
B6B
100
AcDbEntity
  8
1
  6
CENTER
 62
    18
370
    35
100
AcDbLine
 10
1156.087914867582
 20
501.6614539124334
 30
0.0
 11
1156.087914867582
 21
517.6614539124334
 31
0.0
  0
LINE
  5
A41
330
B6B
100
AcDbEntity
  8
1
  6
Continuous
 62
   155
370
    70
100
AcDbLine
 10
1161.312709867582
 20
496.0688289124334
 30
0.0
 11
1165.143966867582
 21
496.0688289124334
 31
0.0
  0
LINE
  5
A42
330
B6B
100
AcDbEntity
  8
1
  6
Continuous
 62
   155
370
    70
100
AcDbLine
 10
1164.981620867582
 20
495.9767199124335
 30
0.0
 11
1161.220600867582
 21
495.9767199124335
 31
0.0
  0
LINE
  5
A43
330
B6B
100
AcDbEntity
  8
1
  6
Continuous
 62
   155
370
    70
100
AcDbLine
 10
1164.645028867582
 20
503.3343419124334
 30
0.0
 11
1157.796414867582
 21
503.3343419124334
 31
0.0
  0
LINE
  5
A44
330
B6B
100
AcDbEntity
  8
1
  6
CENTER
 62
    18
370
    35
100
AcDbLine
 10
1153.188289867582
 20
499.6114539124335
 30
0.0
 11
1169.188289867582
 21
499.6114539124335
 31
0.0
  0
LINE
  5
A45
330
B6B
100
AcDbEntity
  8
1
  6
Continuous
 62
   155
370
    70
100
AcDbLine
 10
1157.704305867582
 20
499.4930149124335
 30
0.0
 11
1157.704305867582
 21
503.0908219124335
 31
0.0
  0
LINE
  5
A46
330
B6B
100
AcDbEntity
  8
1
  6
Continuous
 62
   155
370
    70
100
AcDbLine
 10
1157.796414867582
 20
503.3343419124334
 30
0.0
 11
1157.796414867582
 21
499.5851239124335
 31
0.0
  0
LINE
  5
A47
330
B6B
100
AcDbEntity
  8
1
  6
Continuous
 62
   155
370
    35
100
AcDbLine
 10
1157.704305867582
 20
499.4930149124335
 30
0.0
 11
1157.796414867582
 21
499.5851239124335
 31
0.0
  0
LINE
  5
A48
330
B6B
100
AcDbEntity
  8
1
  6
Continuous
 62
   155
370
    35
100
AcDbLine
 10
1161.312709867582
 20
496.0688289124334
 30
0.0
 11
1161.220600867582
 21
495.9767199124335
 31
0.0
  0
LINE
  5
A49
330
B6B
100
AcDbEntity
  8
1
  6
Continuous
 62
   155
370
    70
100
AcDbLine
 10
1157.796414867582
 20
503.3343419124334
 30
0.0
 11
1157.704305867582
 21
503.0908219124335
 31
0.0
  0
CIRCLE
  5
A4A
330
B6B
100
AcDbEntity
  8
1
  6
Continuous
 62
   155
370
    70
100
AcDbCircle
 10
1161.188289867582
 20
499.6114539124335
 30
0.0
 40
1.3065
  0
ELLIPSE
  5
A4B
330
B6B
100
AcDbEntity
  8
1
  6
Continuous
 62
   155
370
    70
100
AcDbEllipse
 10
1161.223011867582
 20
499.4954259124335
 30
0.0
 11
2.488953030700712
 21
2.488953030700792
 31
0.0
210
0.0
220
0.0
230
1.0
 40
0.9993149999999997
 41
2.356537106530543
 42
3.926648200649078
  0
ELLIPSE
  5
A4C
330
B6B
100
AcDbEntity
  8
1
  6
Continuous
 62
   155
370
    70
100
AcDbEllipse
 10
1161.315120867582
 20
499.5875349124335
 30
0.0
 11
2.488953030700712
 21
2.488953030700792
 31
0.0
210
0.0
220
0.0
230
1.0
 40
0.9993149999999997
 41
2.356537106530382
 42
3.926648200649078
  0
LINE
  5
A4D
330
B6B
100
AcDbEntity
  8
1
  6
CENTER
 62
    18
370
    35
100
AcDbLine
 10
1161.188289867582
 20
491.6114539124335
 30
0.0
 11
1161.188289867582
 21
507.6114539124335
 31
0.0
  0
LINE
  5
A4E
330
B6B
100
AcDbEntity
  8
1
  6
Continuous
 62
   155
370
    70
100
AcDbLine
 10
1165.143966867582
 20
496.0688289124334
 30
0.0
 11
1165.143966867582
 21
502.8347409124335
 31
0.0
  0
LINE
  5
A4F
330
B6B
100
AcDbEntity
  8
1
  6
Continuous
 62
   155
370
    70
100
AcDbLine
 10
1165.283120867582
 20
503.0434709124335
 30
0.0
 11
1165.283120867582
 21
495.6374639124335
 31
0.0
  0
LINE
  5
A50
330
B6B
100
AcDbEntity
  8
1
  6
Continuous
 62
   155
370
    70
100
AcDbLine
 10
1166.451028867582
 20
503.7872039124335
 30
0.0
 11
1166.451028867582
 21
495.6384479124335
 31
0.0
  0
LINE
  5
A51
330
B6B
100
AcDbEntity
  8
1
  6
Continuous
 62
   155
370
    35
100
AcDbLine
 10
1166.451028867582
 20
495.6384479124335
 30
0.0
 11
1166.460676867582
 21
495.5805109124335
 31
0.0
  0
LINE
  5
A52
330
B6B
100
AcDbEntity
  8
1
  6
Continuous
 62
   155
370
    70
100
AcDbLine
 10
1165.958386867582
 20
495.0775509124335
 30
0.0
 11
1165.733918867582
 21
495.0775509124335
 31
0.0
  0
LINE
  5
A53
330
B6B
100
AcDbEntity
  8
1
  6
Continuous
 62
   155
370
    35
100
AcDbLine
 10
1165.958386867582
 20
495.0775509124335
 30
0.0
 11
1165.948739867582
 21
495.1354879124335
 31
0.0
  0
LINE
  5
A54
330
B6B
100
AcDbEntity
  8
1
  6
Continuous
 62
   155
370
    35
100
AcDbLine
 10
1165.784941867582
 20
495.1354879124335
 30
0.0
 11
1165.733918867582
 21
495.0775509124335
 31
0.0
  0
LINE
  5
A55
330
B6B
100
AcDbEntity
  8
1
  6
Continuous
 62
   155
370
    70
100
AcDbLine
 10
1165.143966867582
 20
496.0688289124334
 30
0.0
 11
1164.981620867582
 21
495.9767199124335
 31
0.0
  0
LINE
  5
A56
330
B6B
100
AcDbEntity
  8
1
  6
Continuous
 62
   155
370
    35
100
AcDbLine
 10
1165.232097867582
 20
495.5795269124335
 30
0.0
 11
1165.283120867582
 21
495.6374639124335
 31
0.0
  0
LINE
  5
A57
330
B6B
100
AcDbEntity
  8
1
  6
Continuous
 62
   155
370
    70
100
AcDbLine
 10
1165.784941867582
 20
495.1354879124335
 30
0.0
 11
1165.948739867582
 21
495.1354879124335
 31
0.0
  0
ELLIPSE
  5
A58
330
B6B
100
AcDbEntity
  8
1
  6
Continuous
 62
   155
370
    70
100
AcDbEllipse
 10
1165.958157867582
 20
495.5807409124334
 30
0.0
 11
0.08265547107400054
 21
-0.4963739326004147
 31
0.0
210
0.0
220
0.0
230
1.0
 40
0.9985919999999999
 41
6.118408943322634
 42
7.688748558521529
  0
ELLIPSE
  5
A59
330
B6B
100
AcDbEntity
  8
1
  6
Continuous
 62
   155
370
    70
100
AcDbEllipse
 10
1165.735132867582
 20
495.5807409124334
 30
0.0
 11
-0.3329162475202902
 21
-0.3780270264278331
 31
0.0
210
0.0
220
0.0
230
1.0
 40
0.9975710000000001
 41
5.435626740899515
 42
7.004010128305191
  0
ELLIPSE
  5
A5A
330
B6B
100
AcDbEntity
  8
1
  6
Continuous
 62
   155
370
    70
100
AcDbEllipse
 10
1165.786155867582
 20
495.6386779124335
 30
0.0
 11
-0.3329162475202902
 21
-0.3780270264278331
 31
0.0
210
0.0
220
0.0
230
1.0
 40
0.9975710000000001
 41
5.435626740899423
 42
7.00401012830519
  0
ELLIPSE
  5
A5B
330
B6B
100
AcDbEntity
  8
1
  6
Continuous
 62
   155
370
    70
100
AcDbEllipse
 10
1165.948509867582
 20
495.6386779124335
 30
0.0
 11
0.08265547107400054
 21
-0.4963739326004147
 31
0.0
210
0.0
220
0.0
230
1.0
 40
0.9985919999999999
 41
6.118408943322634
 42
7.688748558521529
  0
LINE
  5
A5C
330
B6B
100
AcDbEntity
  8
1
  6
Continuous
 62
   155
370
    35
100
AcDbLine
 10
1165.283120867582
 20
503.0434709124335
 30
0.0
 11
1165.143966867582
 21
502.8347409124335
 31
0.0
  0
LINE
  5
A5D
330
B6B
100
AcDbEntity
  8
1
  6
Continuous
 62
   155
370
    35
100
AcDbLine
 10
1166.481725867582
 20
503.8486019124335
 30
0.0
 11
1166.451028867582
 21
503.7872039124335
 31
0.0
  0
LINE
  5
A5E
330
B6B
100
AcDbEntity
  8
1
  6
Continuous
 62
   155
370
    35
100
AcDbLine
 10
1165.451142867582
 20
504.7872039124335
 30
0.0
 11
1165.481839867582
 21
504.8486019124335
 31
0.0
  0
LINE
  5
A5F
330
B6B
100
AcDbEntity
  8
1
  6
Continuous
 62
   155
370
    35
100
AcDbLine
 10
1164.645028867582
 20
503.3343419124334
 30
0.0
 11
1164.784182867582
 21
503.5430719124334
 31
0.0
  0
ELLIPSE
  5
A60
330
B6B
100
AcDbEntity
  8
1
  6
Continuous
 62
   155
370
    70
100
AcDbEllipse
 10
1164.643434867582
 20
502.8331449124335
 30
0.0
 11
0.2783085002330181
 21
0.4174627503488432
 31
0.0
210
0.0
220
0.0
230
1.0
 40
0.9965560000000001
 41
5.301984766162141
 42
6.869596840884057
  0
ELLIPSE
  5
A61
330
B6B
100
AcDbEntity
  8
1
  6
Continuous
 62
   155
370
    70
100
AcDbEllipse
 10
1165.481687867582
 20
503.8484499124335
 30
0.0
 11
-0.4472714922462575
 21
-0.8946111164840794
 31
0.0
210
0.0
220
0.0
230
1.0
 40
0.99981
 41
2.034489625915052
 42
3.605133653665243
  0
ELLIPSE
  5
A62
330
B6B
100
AcDbEntity
  8
1
  6
Continuous
 62
   155
370
    70
100
AcDbEllipse
 10
1164.782588867582
 20
503.0418749124335
 30
0.0
 11
0.2783085002330181
 21
0.4174627503488432
 31
0.0
210
0.0
220
0.0
230
1.0
 40
0.9965560000000001
 41
5.301984766162141
 42
6.869596840884057
  0
ELLIPSE
  5
A63
330
B6B
100
AcDbEntity
  8
1
  6
Continuous
 62
   155
370
    70
100
AcDbEllipse
 10
1165.450990867582
 20
503.7870519124335
 30
0.0
 11
-0.4472714922462575
 21
-0.8946111164840794
 31
0.0
210
0.0
220
0.0
230
1.0
 40
0.99981
 41
2.034489625915052
 42
3.605133653665243
  0
LINE
  5
A64
330
B6B
100
AcDbEntity
  8
1
  6
Continuous
 62
   155
370
    35
100
AcDbLine
 10
1164.481801867582
 20
514.4021339124334
 30
0.0
 11
1164.565121867582
 21
514.4854539124335
 31
0.0
  0
LINE
  5
A65
330
B6B
100
AcDbEntity
  8
1
  6
Continuous
 62
   155
370
    35
100
AcDbLine
 10
1166.565045867582
 20
512.4855299124335
 30
0.0
 11
1166.481725867582
 21
512.4022099124335
 31
0.0
  0
ELLIPSE
  5
A66
330
B6B
100
AcDbEntity
  8
1
  6
Continuous
 62
   155
370
    70
100
AcDbEllipse
 10
1164.564969867582
 20
512.4853779124335
 30
0.0
 11
1.414321262261756
 21
1.414321262261801
 31
0.0
210
0.0
220
0.0
230
1.0
 40
0.999924
 41
5.497825219993157
 42
7.068545394366079
  0
ELLIPSE
  5
A67
330
B6B
100
AcDbEntity
  8
1
  6
Continuous
 62
   155
370
    70
100
AcDbEllipse
 10
1164.481649867582
 20
512.4020579124335
 30
0.0
 11
1.414321262261756
 21
1.414321262261801
 31
0.0
210
0.0
220
0.0
230
1.0
 40
0.999924
 41
5.497825219993157
 42
7.068545394366079
  0
LINE
  5
A68
330
B6B
100
AcDbEntity
  8
1
  6
CENTER
 62
    18
370
    35
100
AcDbLine
 10
1148.087914867582
 20
509.6614539124334
 30
0.0
 11
1164.087914867582
 21
509.6614539124334
 31
0.0
  0
DIMENSION
  5
B4C
330
B6B
100
AcDbEntity
  8
PUB_DIM尺寸
 62
     3
 48
8.880422039859468
100
AcDbDimension
280
     0
 10
1179.450726235175
 20
373.9864539124335
 30
0.0
 11
1179.450726235175
 21
441.8239539124335
 31
0.0
 70
    32
 71
     5
 42
-1.0
 73
     0
 74
     0
 75
     0
  3
QCADDimStyle
100
AcDbAlignedDimension
 13
1156.087914867582
 23
373.9864539124335
 33
0.0
 14
1156.087914867582
 24
509.6614539124334
 34
0.0
 50
90.0
100
AcDbRotatedDimension
  0
VIEWPORT
  5
C23
330
C1F
100
AcDbEntity
 67
     1
  8
0
 48
8.880422039859468
100
AcDbViewport
 10
128.5
 20
97.5
 30
0.0
 40
314.226
 41
222.18
 68
     1
 69
     1
 12
128.5
 22
97.5
 13
0.0
 23
0.0
 14
10.0
 24
10.0
 15
10.0
 25
10.0
 16
0.0
 26
0.0
 36
1.0
 17
0.0
 27
0.0
 37
0.0
 42
50.0
 43
0.0
 44
0.0
 45
222.18
 50
0.0
 51
0.0
 72
   100
 90
   557152
  1

281
     0
 71
     1
 74
     0
110
0.0
120
0.0
130
0.0
111
1.0
121
0.0
131
0.0
112
0.0
122
1.0
132
0.0
 79
     0
146
0.0
170
     0
 61
     5
348
B7B
292
     1
282
     1
141
0.0
142
0.0
 63
   256
361
C24
  0
ENDSEC
  0
SECTION
  2
OBJECTS
  0
DICTIONARY
  5
B59
330
0
100
AcDbDictionary
281
     1
  3
ACAD_DETAILVIEWSTYLE
350
C3F
  3
ACAD_GROUP
350
B5A
  3
ACAD_LAYOUT
350
B66
  3
ACAD_MATERIAL
350
B8F
  3
ACAD_MLEADERSTYLE
350
BA7
  3
ACAD_MLINESTYLE
350
B63
  3
ACAD_PLOTSETTINGS
350
B65
  3
ACAD_PLOTSTYLENAME
350
B5B
  3
ACAD_SCALELIST
350
B93
  3
ACAD_SECTIONVIEWSTYLE
350
C40
  3
ACAD_TABLESTYLE
350
BA5
  3
ACAD_VISUALSTYLE
350
B76
  3
ACDB_RECOMPOSE_DATA
350
C3C
  3
AcDbVariableDictionary
350
C38
  3
QCAD_OBJECTS
350
BAB
  0
SUN
  5
BA9
330
B75
100
AcDbSun
 90
        1
290
     0
 63
     7
421
 16777215
 40
1.0
291
     1
 91
  2455826
 92
 54000000
292
     0
 70
     2
 71
   256
280
     1
  0
SUN
  5
C1E
330
C1D
100
AcDbSun
 90
        1
290
     0
 63
     7
421
 16777215
 40
1.0
291
     1
 91
  2455826
 92
 54000000
292
     0
 70
     2
 71
   256
280
     1
  0
SUN
  5
C24
330
C23
100
AcDbSun
 90
        1
290
     0
 63
     7
421
 16777215
 40
1.0
291
     1
 91
  2455826
 92
 54000000
292
     0
 70
     2
 71
   256
280
     1
  0
DICTIONARY
  5
C3F
102
{ACAD_REACTORS
330
B59
102
}
330
B59
100
AcDbDictionary
281
     1
  0
DICTIONARY
  5
B5A
102
{ACAD_REACTORS
330
B59
102
}
330
B59
100
AcDbDictionary
281
     1
  0
DICTIONARY
  5
B66
102
{ACAD_REACTORS
330
B59
102
}
330
B59
100
AcDbDictionary
281
     1
  3
Layout1
350
B6A
  3
Layout2
350
C20
  3
Model
350
B6E
  0
DICTIONARY
  5
B8F
102
{ACAD_REACTORS
330
B59
102
}
330
B59
100
AcDbDictionary
281
     1
  3
ByBlock
350
B91
  3
ByLayer
350
B90
  3
Global
350
B92
  0
DICTIONARY
  5
BA7
102
{ACAD_REACTORS
330
B59
102
}
330
B59
100
AcDbDictionary
281
     1
  3
Standard
350
BA8
  0
DICTIONARY
  5
B63
102
{ACAD_REACTORS
330
B59
102
}
330
B59
100
AcDbDictionary
281
     1
  3
Standard
350
B64
  0
DICTIONARY
  5
B65
102
{ACAD_REACTORS
330
B59
102
}
330
B59
100
AcDbDictionary
281
     1
  0
ACDBDICTIONARYWDFLT
  5
B5B
102
{ACAD_REACTORS
330
B59
102
}
330
B59
100
AcDbDictionary
281
     1
  3
Normal
350
B5C
100
AcDbDictionaryWithDefault
340
B5C
  0
DICTIONARY
  5
B93
102
{ACAD_REACTORS
330
B59
102
}
330
B59
100
AcDbDictionary
281
     1
  3
A0
350
B94
  3
A1
350
B95
  3
A2
350
B96
  3
A3
350
B97
  3
A4
350
B98
  3
A5
350
B99
  3
A6
350
B9A
  3
A7
350
B9B
  3
A8
350
B9C
  3
A9
350
B9D
  3
B1
350
B9E
  3
B2
350
B9F
  3
B3
350
BA0
  3
B4
350
BA1
  3
B5
350
BA2
  3
B6
350
BA3
  3
B7
350
BA4
  0
DICTIONARY
  5
C40
102
{ACAD_REACTORS
330
B59
102
}
330
B59
100
AcDbDictionary
281
     1
  0
DICTIONARY
  5
BA5
102
{ACAD_REACTORS
330
B59
102
}
330
B59
100
AcDbDictionary
281
     1
  3
Standard
350
BA6
  0
DICTIONARY
  5
B76
102
{ACAD_REACTORS
330
B59
102
}
330
B59
100
AcDbDictionary
281
     1
  3
2dWireframe
350
B7B
  3
Basic
350
B7E
  3
Brighten
350
B82
  3
ColorChange
350
B86
  3
Conceptual
350
B80
  3
Dim
350
B81
  3
EdgeColorOff
350
B89
  3
Facepattern
350
B85
  3
Flat
350
B77
  3
FlatWithEdges
350
B78
  3
Gouraud
350
B79
  3
GouraudWithEdges
350
B7A
  3
Hidden
350
B7D
  3
JitterOff
350
B87
  3
Linepattern
350
B84
  3
OverhangOff
350
B88
  3
Realistic
350
B7F
  3
Shaded
350
B8E
  3
Shaded with edges
350
B8D
  3
Shades of Gray
350
B8A
  3
Sketchy
350
B8B
  3
Thicken
350
B83
  3
Wireframe
350
B7C
  3
X-Ray
350
B8C
  0
XRECORD
  5
C3C
102
{ACAD_REACTORS
330
B59
102
}
330
B59
100
AcDbXrecord
280
     1
 90
        1
330
BA6
  0
DICTIONARY
  5
C38
102
{ACAD_REACTORS
330
B59
102
}
330
B59
100
AcDbDictionary
281
     1
  3
CANNOSCALE
350
C39
  3
CMLEADERSTYLE
350
C3E
  3
CTABLESTYLE
350
C3D
  0
DICTIONARY
  5
BAB
102
{ACAD_REACTORS
330
B59
102
}
330
B59
100
AcDbDictionary
281
     1
  3
ColorSettings/BackgroundColor
350
BAD
  3
ColorSettings/ColorMode
350
BAE
  3
Grid/DisplayGrid00
350
BAF
  3
Grid/DisplayGrid01
350
BB0
  3
Grid/DisplayGrid02
350
BB1
  3
Grid/DisplayGrid03
350
BB2
  3
Grid/GridSpacingX00
350
BB3
  3
Grid/GridSpacingX01
350
BB4
  3
Grid/GridSpacingX02
350
BB5
  3
Grid/GridSpacingX03
350
BB6
  3
Grid/GridSpacingY00
350
BB7
  3
Grid/GridSpacingY01
350
BB8
  3
Grid/GridSpacingY02
350
BB9
  3
Grid/GridSpacingY03
350
BBA
  3
Grid/IsometricGrid00
350
BBB
  3
Grid/IsometricGrid01
350
BBC
  3
Grid/IsometricGrid02
350
BBD
  3
Grid/IsometricGrid03
350
BBE
  3
Grid/IsometricProjection00
350
BBF
  3
Grid/IsometricProjection01
350
BC0
  3
Grid/IsometricProjection02
350
BC1
  3
Grid/IsometricProjection03
350
BC2
  3
Grid/MetaGridSpacingX00
350
BC3
  3
Grid/MetaGridSpacingX01
350
BC4
  3
Grid/MetaGridSpacingX02
350
BC5
  3
Grid/MetaGridSpacingX03
350
BC6
  3
Grid/MetaGridSpacingY00
350
BC7
  3
Grid/MetaGridSpacingY01
350
BC8
  3
Grid/MetaGridSpacingY02
350
BC9
  3
Grid/MetaGridSpacingY03
350
BCA
  3
MultiPageSettings/Columns
350
BCB
  3
MultiPageSettings/GlueMarginsBottom
350
BCC
  3
MultiPageSettings/GlueMarginsLeft
350
BCD
  3
MultiPageSettings/GlueMarginsRight
350
BCE
  3
MultiPageSettings/GlueMarginsTop
350
BCF
  3
MultiPageSettings/PrintCropMarks
350
BD0
  3
MultiPageSettings/Rows
350
BD1
  3
PageSettings/OffsetX
350
BD2
  3
PageSettings/OffsetY
350
BD3
  3
PageSettings/PageOrientation
350
BD4
  3
PageSettings/PaperHeight
350
BD5
  3
PageSettings/PaperWidth
350
BD6
  3
PageSettings/Scale
350
BD7
  3
PageSettings/ShowPaperBorders
350
BD8
  3
PageTagSettings/EnablePageTags
350
BD9
  3
PageTagSettings/TagAlignment
350
BDA
  3
PageTagSettings/TagFont
350
BDB
  3
PageTagSettings/TagPosition
350
BDC
  3
QCADVersion
350
BDD
  3
UnitSettings/PaperUnit
350
BDE
  3
ViewportCenter
350
BDF
  3
ViewportHeight
350
BE0
  3
ViewportWidth
350
BE1
  0
LAYOUT
  5
B6A
102
{ACAD_REACTORS
330
B66
102
}
330
B66
100
AcDbPlotSettings
  1

  2
none_device
  4
ISO_A4_(210.00_x_297.00_MM)
  6

 40
7.5
 41
20.0
 42
7.5
 43
20.0
 44
210.0
 45
297.0
 46
0.0
 47
0.0
 48
0.0
 49
0.0
140
0.0
141
0.0
142
1.0
143
1.0
 70
   688
 72
     1
 73
     1
 74
     5
  7

 75
    16
 76
     0
 77
     2
 78
   300
147
1.0
148
0.0
149
0.0
100
AcDbLayout
  1
Layout1
 70
     1
 71
     1
 10
-20.0
 20
-7.5
 11
277.0
 21
202.5
 12
0.0
 22
0.0
 32
0.0
 14
-0.5
 24
-0.5
 34
-0.5
 15
5.0
 25
5.0
 35
5.0
146
0.0
 13
0.0
 23
0.0
 33
0.0
 16
1.0
 26
0.0
 36
0.0
 17
0.0
 27
1.0
 37
0.0
 76
     0
330
B67
331
C1D
  0
LAYOUT
  5
C20
102
{ACAD_REACTORS
330
B66
102
}
330
B66
100
AcDbPlotSettings
  1

  2
none_device
  4
ISO_A4_(210.00_x_297.00_MM)
  6

 40
7.5
 41
20.0
 42
7.5
 43
20.0
 44
210.0
 45
297.0
 46
0.0
 47
0.0
 48
0.0
 49
0.0
140
0.0
141
0.0
142
1.0
143
1.0
 70
   688
 72
     1
 73
     1
 74
     5
  7

 75
    16
 76
     0
 77
     2
 78
   300
147
1.0
148
0.0
149
0.0
100
AcDbLayout
  1
Layout2
 70
     1
 71
     2
 10
0.0
 20
0.0
 11
0.0
 21
0.0
 12
0.0
 22
0.0
 32
0.0
 14
0.0
 24
0.0
 34
0.0
 15
0.0
 25
0.0
 35
0.0
146
0.0
 13
0.0
 23
0.0
 33
0.0
 16
1.0
 26
0.0
 36
0.0
 17
0.0
 27
1.0
 37
0.0
 76
     0
330
C1F
331
C23
  0
LAYOUT
  5
B6E
102
{ACAD_REACTORS
330
B66
102
}
330
B66
100
AcDbPlotSettings
  1

  2
none_device
  4
Letter_(8.50_x_11.00_Inches)
  6

 40
6.35
 41
6.35
 42
6.35000508
 43
6.35000508
 44
215.9
 45
279.4
 46
0.0
 47
0.0
 48
0.0
 49
0.0
140
0.0
141
0.0
142
1.0
143
1.0
 70
  1712
 72
     0
 73
     0
 74
     0
  7

 75
     0
 76
     0
 77
     2
 78
   300
147
1.0
148
0.0
149
0.0
100
AcDbLayout
  1
Model
 70
     1
 71
     0
 10
-0.5
 20
-0.5
 11
5.0
 21
5.0
 12
0.0
 22
0.0
 32
0.0
 14
524.5128122475885
 24
362.6733928131303
 34
-0.0000000000000031
 15
1179.780726235175
 25
608.2856209124335
 35
0.0000000000001466
146
0.0
 13
0.0
 23
0.0
 33
0.0
 16
1.0
 26
0.0
 36
0.0
 17
0.0
 27
1.0
 37
0.0
 76
     0
330
B6B
331
B75
  0
MATERIAL
  5
B91
102
{ACAD_REACTORS
330
B8F
102
}
330
B8F
100
AcDbMaterial
  1
ByBlock
 72
     1
 94
      127
  0
MATERIAL
  5
B90
102
{ACAD_REACTORS
330
B8F
102
}
330
B8F
100
AcDbMaterial
  1
ByLayer
 72
     1
 94
      127
  0
MATERIAL
  5
B92
102
{ACAD_REACTORS
330
B8F
102
}
330
B8F
100
AcDbMaterial
  1
Global
 72
     1
 94
      127
  0
MLEADERSTYLE
  5
BA8
102
{ACAD_REACTORS
330
BA7
102
}
330
BA7
100
AcDbMLeaderStyle
179
     2
170
     2
171
     1
172
     0
 90
        2
 40
0.0
 41
0.0
173
     1
 91
-1056964608
340
B60
 92
       -2
290
     1
 42
0.09
291
     1
 43
0.36
  3
Standard
341
0
 44
0.18
300

342
B5E
174
     1
178
     6
175
     1
176
     0
 93
-1056964608
 45
0.18
292
     0
297
     0
 46
0.18
343
0
 94
-1056964608
 47
1.0
 49
1.0
140
1.0
293
     1
141
0.0
294
     1
177
     0
142
1.0
295
     0
296
     0
143
0.125
271
     0
272
     9
273
     9
298
     0
  0
MLINESTYLE
  5
B64
102
{ACAD_REACTORS
330
B63
102
}
330
B63
100
AcDbMlineStyle
  2
Standard
 70
     0
  3

 62
   256
 51
90.0
 52
90.0
 71
     2
 49
0.5
 62
   256
  6
BYLAYER
 49
-0.5
 62
   256
  6
BYLAYER
  0
ACDBPLACEHOLDER
  5
B5C
102
{ACAD_REACTORS
330
B5B
102
}
330
B5B
  0
SCALE
  5
B94
102
{ACAD_REACTORS
330
B93
102
}
330
B93
100
AcDbScale
 70
     0
300
1:1
140
1.0
141
1.0
290
     1
  0
SCALE
  5
B95
102
{ACAD_REACTORS
330
B93
102
}
330
B93
100
AcDbScale
 70
     0
300
1/128" = 1'-0"
140
0.0078125
141
12.0
290
     0
  0
SCALE
  5
B96
102
{ACAD_REACTORS
330
B93
102
}
330
B93
100
AcDbScale
 70
     0
300
1/64" = 1'-0"
140
0.015625
141
12.0
290
     0
  0
SCALE
  5
B97
102
{ACAD_REACTORS
330
B93
102
}
330
B93
100
AcDbScale
 70
     0
300
1/32" = 1'-0"
140
0.03125
141
12.0
290
     0
  0
SCALE
  5
B98
102
{ACAD_REACTORS
330
B93
102
}
330
B93
100
AcDbScale
 70
     0
300
1/16" = 1'-0"
140
0.0625
141
12.0
290
     0
  0
SCALE
  5
B99
102
{ACAD_REACTORS
330
B93
102
}
330
B93
100
AcDbScale
 70
     0
300
3/32" = 1'-0"
140
0.09375
141
12.0
290
     0
  0
SCALE
  5
B9A
102
{ACAD_REACTORS
330
B93
102
}
330
B93
100
AcDbScale
 70
     0
300
1/8" = 1'-0"
140
0.125
141
12.0
290
     0
  0
SCALE
  5
B9B
102
{ACAD_REACTORS
330
B93
102
}
330
B93
100
AcDbScale
 70
     0
300
3/16" = 1'-0"
140
0.1875
141
12.0
290
     0
  0
SCALE
  5
B9C
102
{ACAD_REACTORS
330
B93
102
}
330
B93
100
AcDbScale
 70
     0
300
1/4" = 1'-0"
140
0.25
141
12.0
290
     0
  0
SCALE
  5
B9D
102
{ACAD_REACTORS
330
B93
102
}
330
B93
100
AcDbScale
 70
     0
300
3/8" = 1'-0"
140
0.375
141
12.0
290
     0
  0
SCALE
  5
B9E
102
{ACAD_REACTORS
330
B93
102
}
330
B93
100
AcDbScale
 70
     0
300
1/2" = 1'-0"
140
0.5
141
12.0
290
     0
  0
SCALE
  5
B9F
102
{ACAD_REACTORS
330
B93
102
}
330
B93
100
AcDbScale
 70
     0
300
3/4" = 1'-0"
140
0.75
141
12.0
290
     0
  0
SCALE
  5
BA0
102
{ACAD_REACTORS
330
B93
102
}
330
B93
100
AcDbScale
 70
     0
300
1" = 1'-0"
140
1.0
141
12.0
290
     0
  0
SCALE
  5
BA1
102
{ACAD_REACTORS
330
B93
102
}
330
B93
100
AcDbScale
 70
     0
300
1-1/2" = 1'-0"
140
1.5
141
12.0
290
     0
  0
SCALE
  5
BA2
102
{ACAD_REACTORS
330
B93
102
}
330
B93
100
AcDbScale
 70
     0
300
3" = 1'-0"
140
3.0
141
12.0
290
     0
  0
SCALE
  5
BA3
102
{ACAD_REACTORS
330
B93
102
}
330
B93
100
AcDbScale
 70
     0
300
6" = 1'-0"
140
6.0
141
12.0
290
     0
  0
SCALE
  5
BA4
102
{ACAD_REACTORS
330
B93
102
}
330
B93
100
AcDbScale
 70
     0
300
1'-0" = 1'-0"
140
12.0
141
12.0
290
     0
  0
TABLESTYLE
  5
BA6
102
{ACAD_REACTORS
330
BA5
102
}
102
{ACAD_XDICTIONARY
360
C3A
102
}
330
BA5
100
AcDbTableStyle
  3
Standard
 70
     0
 71
     0
 40
0.06
 41
0.06
280
     0
281
     0
  7
Standard
140
0.18
170
     2
 62
     0
 63
   257
283
     0
 90
        4
 91
        0
  1

274
    -2
284
     1
 64
     0
275
    -2
285
     1
 65
     0
276
    -2
286
     1
 66
     0
277
    -2
287
     1
 67
     0
278
    -2
288
     1
 68
     0
279
    -2
289
     1
 69
     0
  7
Standard
140
0.25
170
     5
 62
     0
 63
   257
283
     0
 90
        4
 91
        0
  1

274
    -2
284
     1
 64
     0
275
    -2
285
     1
 65
     0
276
    -2
286
     1
 66
     0
277
    -2
287
     1
 67
     0
278
    -2
288
     1
 68
     0
279
    -2
289
     1
 69
     0
  7
Standard
140
0.18
170
     5
 62
     0
 63
   257
283
     0
 90
        4
 91
        0
  1

274
    -2
284
     1
 64
     0
275
    -2
285
     1
 65
     0
276
    -2
286
     1
 66
     0
277
    -2
287
     1
 67
     0
278
    -2
288
     1
 68
     0
279
    -2
289
     1
 69
     0
  0
VISUALSTYLE
  5
B7B
102
{ACAD_REACTORS
330
B76
102
}
330
B76
100
AcDbVisualStyle
  2
2dWireframe
 70
     4
177
     3
291
     0
 70
    58
 90
        0
176
     1
 90
        2
176
     1
 90
        0
176
     1
 90
        0
176
     1
 40
0.6
176
     1
 40
30.0
176
     1
 62
     7
420
 16777215
176
     1
 90
        1
176
     1
 90
        4
176
     1
 62
     7
176
     1
 62
   257
176
     1
 90
        1
176
     1
 90
        1
176
     1
 40
1.0
176
     1
 90
        0
176
     1
 62
   257
176
     1
 40
1.0
176
     1
 90
        1
176
     1
 90
        6
176
     1
 90
        2
176
     1
 62
     7
176
     1
 90
        5
176
     1
 90
        0
176
     1
 90
        0
176
     1
290
     0
176
     1
 90
        1
176
     1
 40
0.0
176
     1
 90
        0
176
     1
290
     1
176
     1
290
     1
176
     1
290
     0
176
     1
290
     0
176
     1
290
     0
176
     1
290
     0
176
     1
290
     0
176
     1
290
     0
176
     1
290
     0
176
     1
 90
       50
176
     1
 40
0.0
176
     1
 40
1.0
176
     1
 90
        0
176
     1
 62
    18
420
        0
176
     1
 90
       50
176
     1
 90
        3
176
     1
 62
     5
420
      255
176
     1
290
     0
176
     1
 90
       50
176
     1
 90
       50
176
     1
 90
       50
176
     1
290
     0
176
     1
 90
       50
176
     1
 62
   256
176
     0
 40
1.0
176
     0
 90
        2
176
     1
  1
strokes_ogs.tif
176
     1
290
     0
176
     1
 40
1.0
176
     1
 40
1.0
176
     1
  0
VISUALSTYLE
  5
B7E
102
{ACAD_REACTORS
330
B76
102
}
330
B76
100
AcDbVisualStyle
  2
Basic
 70
     7
177
     3
291
     1
 70
    58
 90
        1
176
     1
 90
        0
176
     1
 90
        1
176
     1
 90
        0
176
     1
 40
0.6
176
     1
 40
30.0
176
     1
 62
     7
420
 16777215
176
     1
 90
        0
176
     1
 90
        4
176
     1
 62
     7
176
     1
 62
   257
176
     1
 90
        1
176
     1
 90
        1
176
     1
 40
1.0
176
     1
 90
        8
176
     1
 62
     7
176
     1
 40
1.0
176
     1
 90
        1
176
     1
 90
        6
176
     1
 90
        2
176
     1
 62
     7
176
     1
 90
        5
176
     1
 90
        0
176
     1
 90
        0
176
     1
290
     0
176
     1
 90
        1
176
     1
 40
0.0
176
     1
 90
        0
176
     1
290
     0
176
     1
290
     1
176
     1
290
     1
176
     1
290
     0
176
     1
290
     0
176
     1
290
     0
176
     1
290
     0
176
     1
290
     0
176
     1
290
     0
176
     1
 90
       50
176
     1
 40
0.0
176
     1
 40
1.0
176
     1
 90
        0
176
     1
 62
    18
420
        0
176
     1
 90
       50
176
     1
 90
        3
176
     1
 62
     5
420
      255
176
     1
290
     0
176
     1
 90
       50
176
     1
 90
       50
176
     1
 90
       50
176
     1
290
     0
176
     1
 90
       50
176
     1
 62
   256
176
     0
 40
1.0
176
     0
 90
        2
176
     1
  1
strokes_ogs.tif
176
     1
290
     0
176
     1
 40
1.0
176
     1
 40
1.0
176
     1
  0
VISUALSTYLE
  5
B82
102
{ACAD_REACTORS
330
B76
102
}
330
B76
100
AcDbVisualStyle
  2
Brighten
 70
    12
177
     3
291
     1
 70
    58
 90
        2
176
     1
 90
        2
176
     1
 90
        0
176
     1
 90
        0
176
     1
 40
0.6
176
     1
 40
30.0
176
     1
 62
     7
420
 16777215
176
     1
 90
        1
176
     1
 90
        4
176
     1
 62
     7
176
     1
 62
   257
176
     1
 90
        1
176
     1
 90
        1
176
     1
 40
1.0
176
     1
 90
        8
176
     1
 62
     7
176
     1
 40
1.0
176
     1
 90
        1
176
     1
 90
        6
176
     1
 90
        2
176
     1
 62
     7
176
     1
 90
        5
176
     1
 90
        0
176
     1
 90
        0
176
     1
290
     0
176
     1
 90
        1
176
     1
 40
50.0
176
     1
 90
        0
176
     1
290
     0
176
     1
290
     1
176
     1
290
     1
176
     1
290
     0
176
     1
290
     0
176
     1
290
     0
176
     1
290
     0
176
     1
290
     0
176
     1
290
     0
176
     1
 90
       50
176
     1
 40
0.0
176
     1
 40
1.0
176
     1
 90
        0
176
     1
 62
    18
420
        0
176
     1
 90
       50
176
     1
 90
        3
176
     1
 62
     5
420
      255
176
     1
290
     0
176
     1
 90
       50
176
     1
 90
       50
176
     1
 90
       50
176
     1
290
     0
176
     1
 90
       50
176
     1
 62
   256
176
     0
 40
1.0
176
     0
 90
        2
176
     1
  1
strokes_ogs.tif
176
     1
290
     0
176
     1
 40
1.0
176
     1
 40
1.0
176
     1
  0
VISUALSTYLE
  5
B86
102
{ACAD_REACTORS
330
B76
102
}
330
B76
100
AcDbVisualStyle
  2
ColorChange
 70
    16
177
     3
291
     1
 70
    58
 90
        2
176
     1
 90
        2
176
     1
 90
        3
176
     1
 90
        0
176
     1
 40
0.6
176
     1
 40
30.0
176
     1
 62
     8
420
  8421504
176
     1
 90
        1
176
     1
 90
        4
176
     1
 62
     7
176
     1
 62
   257
176
     1
 90
        1
176
     1
 90
        1
176
     1
 40
1.0
176
     1
 90
        8
176
     1
 62
     8
420
  8421504
176
     1
 40
1.0
176
     1
 90
        1
176
     1
 90
        6
176
     1
 90
        2
176
     1
 62
     7
176
     1
 90
        5
176
     1
 90
        0
176
     1
 90
        0
176
     1
290
     0
176
     1
 90
        1
176
     1
 40
0.0
176
     1
 90
        0
176
     1
290
     0
176
     1
290
     1
176
     1
290
     1
176
     1
290
     0
176
     1
290
     0
176
     1
290
     0
176
     1
290
     0
176
     1
290
     0
176
     1
290
     0
176
     1
 90
       50
176
     1
 40
0.0
176
     1
 40
1.0
176
     1
 90
        0
176
     1
 62
    18
420
        0
176
     1
 90
       50
176
     1
 90
        3
176
     1
 62
     5
420
      255
176
     1
290
     0
176
     1
 90
       50
176
     1
 90
       50
176
     1
 90
       50
176
     1
290
     0
176
     1
 90
       50
176
     1
 62
   256
176
     0
 40
1.0
176
     0
 90
        2
176
     1
  1
strokes_ogs.tif
176
     1
290
     0
176
     1
 40
1.0
176
     1
 40
1.0
176
     1
  0
VISUALSTYLE
  5
B80
102
{ACAD_REACTORS
330
B76
102
}
330
B76
100
AcDbVisualStyle
  2
Conceptual
 70
     9
177
     3
291
     0
 70
    58
 90
        3
176
     1
 90
        2
176
     1
 90
        0
176
     1
 90
        0
176
     1
 40
0.6
176
     1
 40
30.0
176
     1
 62
     7
420
 16777215
176
     1
 90
        2
176
     1
 90
        2
176
     1
 62
     7
176
     1
 62
   257
176
     1
 90
        1
176
     1
 90
        1
176
     1
 40
179.0
176
     1
 90
        8
176
     1
 62
     7
176
     1
 40
1.0
176
     1
 90
        1
176
     1
 90
        6
176
     1
 90
        2
176
     1
 62
     7
176
     1
 90
        3
176
     1
 90
        0
176
     1
 90
        0
176
     1
290
     0
176
     1
 90
        1
176
     1
 40
0.0
176
     1
 90
        0
176
     1
290
     0
176
     1
290
     1
176
     1
290
     1
176
     1
290
     0
176
     1
290
     0
176
     1
290
     0
176
     1
290
     0
176
     1
290
     0
176
     1
290
     0
176
     1
 90
       50
176
     1
 40
0.0
176
     1
 40
1.0
176
     1
 90
        0
176
     1
 62
    18
420
        0
176
     1
 90
       50
176
     1
 90
        3
176
     1
 62
     5
420
      255
176
     1
290
     0
176
     1
 90
       50
176
     1
 90
       50
176
     1
 90
       50
176
     1
290
     0
176
     1
 90
       50
176
     1
 62
   256
176
     0
 40
1.0
176
     0
 90
        2
176
     1
  1
strokes_ogs.tif
176
     1
290
     0
176
     1
 40
1.0
176
     1
 40
1.0
176
     1
  0
VISUALSTYLE
  5
B81
102
{ACAD_REACTORS
330
B76
102
}
330
B76
100
AcDbVisualStyle
  2
Dim
 70
    11
177
     3
291
     1
 70
    58
 90
        2
176
     1
 90
        2
176
     1
 90
        0
176
     1
 90
        0
176
     1
 40
0.6
176
     1
 40
30.0
176
     1
 62
     7
420
 16777215
176
     1
 90
        1
176
     1
 90
        4
176
     1
 62
     7
176
     1
 62
   257
176
     1
 90
        1
176
     1
 90
        1
176
     1
 40
1.0
176
     1
 90
        8
176
     1
 62
     7
176
     1
 40
1.0
176
     1
 90
        1
176
     1
 90
        6
176
     1
 90
        2
176
     1
 62
     7
176
     1
 90
        5
176
     1
 90
        0
176
     1
 90
        0
176
     1
290
     0
176
     1
 90
        1
176
     1
 40
-50.0
176
     1
 90
        0
176
     1
290
     0
176
     1
290
     1
176
     1
290
     1
176
     1
290
     0
176
     1
290
     0
176
     1
290
     0
176
     1
290
     0
176
     1
290
     0
176
     1
290
     0
176
     1
 90
       50
176
     1
 40
0.0
176
     1
 40
1.0
176
     1
 90
        0
176
     1
 62
    18
420
        0
176
     1
 90
       50
176
     1
 90
        3
176
     1
 62
     5
420
      255
176
     1
290
     0
176
     1
 90
       50
176
     1
 90
       50
176
     1
 90
       50
176
     1
290
     0
176
     1
 90
       50
176
     1
 62
   256
176
     0
 40
1.0
176
     0
 90
        2
176
     1
  1
strokes_ogs.tif
176
     1
290
     0
176
     1
 40
1.0
176
     1
 40
1.0
176
     1
  0
VISUALSTYLE
  5
B89
102
{ACAD_REACTORS
330
B76
102
}
330
B76
100
AcDbVisualStyle
  2
EdgeColorOff
 70
    22
177
     3
291
     1
 70
    58
 90
        2
176
     0
 90
        2
176
     0
 90
        0
176
     0
 90
        0
176
     0
 40
0.6
176
     0
 40
30.0
176
     0
 62
     7
420
 16777215
176
     0
 90
        1
176
     0
 90
        4
176
     0
 62
     7
176
     0
 62
   257
176
     0
 90
        1
176
     0
 90
        1
176
     0
 40
1.0
176
     0
 90
        8
176
     2
 62
     7
176
     0
 40
1.0
176
     0
 90
        1
176
     0
 90
        6
176
     0
 90
        2
176
     0
 62
     7
176
     0
 90
        5
176
     0
 90
        0
176
     0
 90
        0
176
     0
290
     0
176
     0
 90
        1
176
     0
 40
0.0
176
     0
 90
        0
176
     0
290
     0
176
     0
290
     1
176
     0
290
     1
176
     0
290
     0
176
     0
290
     0
176
     0
290
     0
176
     0
290
     0
176
     0
290
     0
176
     0
290
     0
176
     0
 90
       50
176
     0
 40
0.0
176
     0
 40
1.0
176
     0
 90
        0
176
     0
 62
    18
420
        0
176
     0
 90
       50
176
     0
 90
        3
176
     0
 62
     5
420
      255
176
     0
290
     0
176
     0
 90
       50
176
     0
 90
       50
176
     0
 90
       50
176
     0
290
     0
176
     0
 90
       50
176
     0
 62
   256
176
     0
 40
1.0
176
     0
 90
        2
176
     0
  1
strokes_ogs.tif
176
     0
290
     0
176
     0
 40
1.0
176
     0
 40
1.0
176
     0
  0
VISUALSTYLE
  5
B85
102
{ACAD_REACTORS
330
B76
102
}
330
B76
100
AcDbVisualStyle
  2
Facepattern
 70
    15
177
     3
291
     1
 70
    58
 90
        2
176
     1
 90
        2
176
     1
 90
        0
176
     1
 90
        0
176
     1
 40
0.6
176
     1
 40
30.0
176
     1
 62
     7
420
 16777215
176
     1
 90
        1
176
     1
 90
        4
176
     1
 62
     7
176
     1
 62
   257
176
     1
 90
        1
176
     1
 90
        1
176
     1
 40
1.0
176
     1
 90
        8
176
     1
 62
     7
176
     1
 40
1.0
176
     1
 90
        1
176
     1
 90
        6
176
     1
 90
        2
176
     1
 62
     7
176
     1
 90
        5
176
     1
 90
        0
176
     1
 90
        0
176
     1
290
     0
176
     1
 90
        1
176
     1
 40
0.0
176
     1
 90
        0
176
     1
290
     0
176
     1
290
     1
176
     1
290
     1
176
     1
290
     0
176
     1
290
     0
176
     1
290
     0
176
     1
290
     0
176
     1
290
     0
176
     1
290
     0
176
     1
 90
       50
176
     1
 40
0.0
176
     1
 40
1.0
176
     1
 90
        0
176
     1
 62
    18
420
        0
176
     1
 90
       50
176
     1
 90
        3
176
     1
 62
     5
420
      255
176
     1
290
     0
176
     1
 90
       50
176
     1
 90
       50
176
     1
 90
       50
176
     1
290
     0
176
     1
 90
       50
176
     1
 62
   256
176
     0
 40
1.0
176
     0
 90
        2
176
     1
  1
strokes_ogs.tif
176
     1
290
     0
176
     1
 40
1.0
176
     1
 40
1.0
176
     1
  0
VISUALSTYLE
  5
B77
102
{ACAD_REACTORS
330
B76
102
}
330
B76
100
AcDbVisualStyle
  2
Flat
 70
     0
177
     3
291
     1
 70
    58
 90
        2
176
     1
 90
        1
176
     1
 90
        1
176
     1
 90
        2
176
     1
 40
0.6
176
     1
 40
30.0
176
     1
 62
     7
420
 16777215
176
     1
 90
        0
176
     1
 90
        0
176
     1
 62
     7
176
     1
 62
   257
176
     1
 90
        1
176
     1
 90
        1
176
     1
 40
1.0
176
     1
 90
        8
176
     1
 62
     7
176
     1
 40
1.0
176
     1
 90
        1
176
     1
 90
        6
176
     1
 90
        2
176
     1
 62
     7
176
     1
 90
        5
176
     1
 90
        0
176
     1
 90
        0
176
     1
290
     0
176
     1
 90
       13
176
     1
 40
0.0
176
     1
 90
        0
176
     1
290
     0
176
     1
290
     1
176
     1
290
     1
176
     1
290
     0
176
     1
290
     0
176
     1
290
     0
176
     1
290
     0
176
     1
290
     0
176
     1
290
     0
176
     1
 90
       50
176
     1
 40
0.0
176
     1
 40
1.0
176
     1
 90
        0
176
     1
 62
    18
420
        0
176
     1
 90
       50
176
     1
 90
        3
176
     1
 62
     5
420
      255
176
     1
290
     0
176
     1
 90
       50
176
     1
 90
       50
176
     1
 90
       50
176
     1
290
     0
176
     1
 90
       50
176
     1
 62
   256
176
     0
 40
1.0
176
     0
 90
        2
176
     1
  1
strokes_ogs.tif
176
     1
290
     0
176
     1
 40
1.0
176
     1
 40
1.0
176
     1
  0
VISUALSTYLE
  5
B78
102
{ACAD_REACTORS
330
B76
102
}
330
B76
100
AcDbVisualStyle
  2
FlatWithEdges
 70
     1
177
     3
291
     1
 70
    58
 90
        2
176
     1
 90
        1
176
     1
 90
        1
176
     1
 90
        2
176
     1
 40
0.6
176
     1
 40
30.0
176
     1
 62
     7
420
 16777215
176
     1
 90
        1
176
     1
 90
        0
176
     1
 62
     7
176
     1
 62
   257
176
     1
 90
        1
176
     1
 90
        1
176
     1
 40
1.0
176
     1
 90
        0
176
     1
 62
   257
176
     1
 40
1.0
176
     1
 90
        1
176
     1
 90
        6
176
     1
 90
        2
176
     1
 62
     7
176
     1
 90
        5
176
     1
 90
        0
176
     1
 90
        0
176
     1
290
     0
176
     1
 90
       13
176
     1
 40
0.0
176
     1
 90
        0
176
     1
290
     0
176
     1
290
     1
176
     1
290
     1
176
     1
290
     0
176
     1
290
     0
176
     1
290
     0
176
     1
290
     0
176
     1
290
     0
176
     1
290
     0
176
     1
 90
       50
176
     1
 40
0.0
176
     1
 40
1.0
176
     1
 90
        0
176
     1
 62
    18
420
        0
176
     1
 90
       50
176
     1
 90
        3
176
     1
 62
     5
420
      255
176
     1
290
     0
176
     1
 90
       50
176
     1
 90
       50
176
     1
 90
       50
176
     1
290
     0
176
     1
 90
       50
176
     1
 62
   256
176
     0
 40
1.0
176
     0
 90
        2
176
     1
  1
strokes_ogs.tif
176
     1
290
     0
176
     1
 40
1.0
176
     1
 40
1.0
176
     1
  0
VISUALSTYLE
  5
B79
102
{ACAD_REACTORS
330
B76
102
}
330
B76
100
AcDbVisualStyle
  2
Gouraud
 70
     2
177
     3
291
     1
 70
    58
 90
        2
176
     1
 90
        2
176
     1
 90
        1
176
     1
 90
        2
176
     1
 40
0.6
176
     1
 40
30.0
176
     1
 62
     7
420
 16777215
176
     1
 90
        0
176
     1
 90
        0
176
     1
 62
     7
176
     1
 62
   257
176
     1
 90
        1
176
     1
 90
        1
176
     1
 40
1.0
176
     1
 90
        0
176
     1
 62
     7
176
     1
 40
1.0
176
     1
 90
        1
176
     1
 90
        6
176
     1
 90
        2
176
     1
 62
     7
176
     1
 90
        5
176
     1
 90
        0
176
     1
 90
        0
176
     1
290
     0
176
     1
 90
       13
176
     1
 40
0.0
176
     1
 90
        0
176
     1
290
     0
176
     1
290
     1
176
     1
290
     1
176
     1
290
     0
176
     1
290
     0
176
     1
290
     0
176
     1
290
     0
176
     1
290
     0
176
     1
290
     0
176
     1
 90
       50
176
     1
 40
0.0
176
     1
 40
1.0
176
     1
 90
        0
176
     1
 62
    18
420
        0
176
     1
 90
       50
176
     1
 90
        3
176
     1
 62
     5
420
      255
176
     1
290
     0
176
     1
 90
       50
176
     1
 90
       50
176
     1
 90
       50
176
     1
290
     0
176
     1
 90
       50
176
     1
 62
   256
176
     0
 40
1.0
176
     0
 90
        2
176
     1
  1
strokes_ogs.tif
176
     1
290
     0
176
     1
 40
1.0
176
     1
 40
1.0
176
     1
  0
VISUALSTYLE
  5
B7A
102
{ACAD_REACTORS
330
B76
102
}
330
B76
100
AcDbVisualStyle
  2
GouraudWithEdges
 70
     3
177
     3
291
     1
 70
    58
 90
        2
176
     1
 90
        2
176
     1
 90
        1
176
     1
 90
        2
176
     1
 40
0.6
176
     1
 40
30.0
176
     1
 62
     7
420
 16777215
176
     1
 90
        1
176
     1
 90
        0
176
     1
 62
     7
176
     1
 62
   257
176
     1
 90
        1
176
     1
 90
        1
176
     1
 40
1.0
176
     1
 90
        0
176
     1
 62
   257
176
     1
 40
1.0
176
     1
 90
        1
176
     1
 90
        6
176
     1
 90
        2
176
     1
 62
     7
176
     1
 90
        5
176
     1
 90
        0
176
     1
 90
        0
176
     1
290
     0
176
     1
 90
       13
176
     1
 40
0.0
176
     1
 90
        0
176
     1
290
     0
176
     1
290
     1
176
     1
290
     1
176
     1
290
     0
176
     1
290
     0
176
     1
290
     0
176
     1
290
     0
176
     1
290
     0
176
     1
290
     0
176
     1
 90
       50
176
     1
 40
0.0
176
     1
 40
1.0
176
     1
 90
        0
176
     1
 62
    18
420
        0
176
     1
 90
       50
176
     1
 90
        3
176
     1
 62
     5
420
      255
176
     1
290
     0
176
     1
 90
       50
176
     1
 90
       50
176
     1
 90
       50
176
     1
290
     0
176
     1
 90
       50
176
     1
 62
   256
176
     0
 40
1.0
176
     0
 90
        2
176
     1
  1
strokes_ogs.tif
176
     1
290
     0
176
     1
 40
1.0
176
     1
 40
1.0
176
     1
  0
VISUALSTYLE
  5
B7D
102
{ACAD_REACTORS
330
B76
102
}
330
B76
100
AcDbVisualStyle
  2
Hidden
 70
     6
177
     3
291
     0
 70
    58
 90
        1
176
     1
 90
        2
176
     1
 90
        2
176
     1
 90
        0
176
     1
 40
0.6
176
     1
 40
30.0
176
     1
 62
     7
420
 16777215
176
     1
 90
        2
176
     1
 90
        2
176
     1
 62
     7
176
     1
 62
   257
176
     1
 90
        2
176
     1
 90
        1
176
     1
 40
40.0
176
     1
 90
        0
176
     1
 62
   257
176
     1
 40
1.0
176
     1
 90
        1
176
     1
 90
        6
176
     1
 90
        2
176
     1
 62
     7
176
     1
 90
        3
176
     1
 90
        0
176
     1
 90
        0
176
     1
290
     0
176
     1
 90
        1
176
     1
 40
0.0
176
     1
 90
        0
176
     1
290
     0
176
     1
290
     1
176
     1
290
     1
176
     1
290
     0
176
     1
290
     0
176
     1
290
     0
176
     1
290
     0
176
     1
290
     0
176
     1
290
     0
176
     1
 90
       50
176
     1
 40
0.0
176
     1
 40
1.0
176
     1
 90
        0
176
     1
 62
    18
420
        0
176
     1
 90
       50
176
     1
 90
        3
176
     1
 62
     5
420
      255
176
     1
290
     0
176
     1
 90
       50
176
     1
 90
       50
176
     1
 90
       50
176
     1
290
     0
176
     1
 90
       50
176
     1
 62
   256
176
     0
 40
1.0
176
     0
 90
        2
176
     1
  1
strokes_ogs.tif
176
     1
290
     0
176
     1
 40
1.0
176
     1
 40
1.0
176
     1
  0
VISUALSTYLE
  5
B87
102
{ACAD_REACTORS
330
B76
102
}
330
B76
100
AcDbVisualStyle
  2
JitterOff
 70
    20
177
     3
291
     1
 70
    58
 90
        2
176
     0
 90
        2
176
     0
 90
        0
176
     0
 90
        0
176
     0
 40
0.6
176
     0
 40
30.0
176
     0
 62
     7
420
 16777215
176
     0
 90
        1
176
     0
 90
        4
176
     0
 62
     7
176
     0
 62
   257
176
     0
 90
        1
176
     0
 90
        1
176
     0
 40
1.0
176
     0
 90
       10
176
     2
 62
     7
176
     0
 40
1.0
176
     0
 90
        1
176
     0
 90
        6
176
     0
 90
        2
176
     0
 62
     7
176
     0
 90
        5
176
     0
 90
        0
176
     0
 90
        0
176
     0
290
     0
176
     0
 90
        1
176
     0
 40
0.0
176
     0
 90
        0
176
     0
290
     0
176
     0
290
     1
176
     0
290
     1
176
     0
290
     0
176
     0
290
     0
176
     0
290
     0
176
     0
290
     0
176
     0
290
     0
176
     0
290
     0
176
     0
 90
       50
176
     0
 40
0.0
176
     0
 40
1.0
176
     0
 90
        0
176
     0
 62
    18
420
        0
176
     0
 90
       50
176
     0
 90
        3
176
     0
 62
     5
420
      255
176
     0
290
     0
176
     0
 90
       50
176
     0
 90
       50
176
     0
 90
       50
176
     0
290
     0
176
     0
 90
       50
176
     0
 62
   256
176
     0
 40
1.0
176
     0
 90
        2
176
     0
  1
strokes_ogs.tif
176
     0
290
     0
176
     0
 40
1.0
176
     0
 40
1.0
176
     0
  0
VISUALSTYLE
  5
B84
102
{ACAD_REACTORS
330
B76
102
}
330
B76
100
AcDbVisualStyle
  2
Linepattern
 70
    14
177
     3
291
     1
 70
    58
 90
        2
176
     1
 90
        2
176
     1
 90
        0
176
     1
 90
        0
176
     1
 40
0.6
176
     1
 40
30.0
176
     1
 62
     7
420
 16777215
176
     1
 90
        1
176
     1
 90
        4
176
     1
 62
     7
176
     1
 62
   257
176
     1
 90
        7
176
     1
 90
        7
176
     1
 40
1.0
176
     1
 90
        8
176
     1
 62
     7
176
     1
 40
1.0
176
     1
 90
        1
176
     1
 90
        6
176
     1
 90
        2
176
     1
 62
     7
176
     1
 90
        5
176
     1
 90
        0
176
     1
 90
        0
176
     1
290
     0
176
     1
 90
        1
176
     1
 40
0.0
176
     1
 90
        0
176
     1
290
     0
176
     1
290
     1
176
     1
290
     1
176
     1
290
     0
176
     1
290
     0
176
     1
290
     0
176
     1
290
     0
176
     1
290
     0
176
     1
290
     0
176
     1
 90
       50
176
     1
 40
0.0
176
     1
 40
1.0
176
     1
 90
        0
176
     1
 62
    18
420
        0
176
     1
 90
       50
176
     1
 90
        3
176
     1
 62
     5
420
      255
176
     1
290
     0
176
     1
 90
       50
176
     1
 90
       50
176
     1
 90
       50
176
     1
290
     0
176
     1
 90
       50
176
     1
 62
   256
176
     0
 40
1.0
176
     0
 90
        2
176
     1
  1
strokes_ogs.tif
176
     1
290
     0
176
     1
 40
1.0
176
     1
 40
1.0
176
     1
  0
VISUALSTYLE
  5
B88
102
{ACAD_REACTORS
330
B76
102
}
330
B76
100
AcDbVisualStyle
  2
OverhangOff
 70
    21
177
     3
291
     1
 70
    58
 90
        2
176
     0
 90
        2
176
     0
 90
        0
176
     0
 90
        0
176
     0
 40
0.6
176
     0
 40
30.0
176
     0
 62
     7
420
 16777215
176
     0
 90
        1
176
     0
 90
        4
176
     0
 62
     7
176
     0
 62
   257
176
     0
 90
        1
176
     0
 90
        1
176
     0
 40
1.0
176
     0
 90
        9
176
     2
 62
     7
176
     0
 40
1.0
176
     0
 90
        1
176
     0
 90
        6
176
     0
 90
        2
176
     0
 62
     7
176
     0
 90
        5
176
     0
 90
        0
176
     0
 90
        0
176
     0
290
     0
176
     0
 90
        1
176
     0
 40
0.0
176
     0
 90
        0
176
     0
290
     0
176
     0
290
     1
176
     0
290
     1
176
     0
290
     0
176
     0
290
     0
176
     0
290
     0
176
     0
290
     0
176
     0
290
     0
176
     0
290
     0
176
     0
 90
       50
176
     0
 40
0.0
176
     0
 40
1.0
176
     0
 90
        0
176
     0
 62
    18
420
        0
176
     0
 90
       50
176
     0
 90
        3
176
     0
 62
     5
420
      255
176
     0
290
     0
176
     0
 90
       50
176
     0
 90
       50
176
     0
 90
       50
176
     0
290
     0
176
     0
 90
       50
176
     0
 62
   256
176
     0
 40
1.0
176
     0
 90
        2
176
     0
  1
strokes_ogs.tif
176
     0
290
     0
176
     0
 40
1.0
176
     0
 40
1.0
176
     0
  0
VISUALSTYLE
  5
B7F
102
{ACAD_REACTORS
330
B76
102
}
330
B76
100
AcDbVisualStyle
  2
Realistic
 70
     8
177
     3
291
     0
 70
    58
 90
        2
176
     1
 90
        3
176
     1
 90
        0
176
     1
 90
        2
176
     1
 40
0.6
176
     1
 40
30.0
176
     1
 62
     7
420
 16777215
176
     1
 90
        0
176
     1
 90
        0
176
     1
 62
     7
176
     1
 62
   257
176
     1
 90
        1
176
     1
 90
        1
176
     1
 40
1.0
176
     1
 90
        8
176
     1
 62
   257
176
     1
 40
1.0
176
     1
 90
        1
176
     1
 90
        6
176
     1
 90
        2
176
     1
 62
     7
176
     1
 90
        3
176
     1
 90
        0
176
     1
 90
        0
176
     1
290
     0
176
     1
 90
       13
176
     1
 40
0.0
176
     1
 90
        0
176
     1
290
     0
176
     1
290
     1
176
     1
290
     1
176
     1
290
     0
176
     1
290
     0
176
     1
290
     0
176
     1
290
     0
176
     1
290
     0
176
     1
290
     0
176
     1
 90
       50
176
     1
 40
0.0
176
     1
 40
1.0
176
     1
 90
        0
176
     1
 62
    18
420
        0
176
     1
 90
       50
176
     1
 90
        3
176
     1
 62
     5
420
      255
176
     1
290
     0
176
     1
 90
       50
176
     1
 90
       50
176
     1
 90
       50
176
     1
290
     0
176
     1
 90
       50
176
     1
 62
   256
176
     0
 40
1.0
176
     0
 90
        2
176
     1
  1
strokes_ogs.tif
176
     1
290
     0
176
     1
 40
1.0
176
     1
 40
1.0
176
     1
  0
VISUALSTYLE
  5
B8E
102
{ACAD_REACTORS
330
B76
102
}
330
B76
100
AcDbVisualStyle
  2
Shaded
 70
    27
177
     3
291
     0
 70
    58
 90
        2
176
     1
 90
        2
176
     1
 90
        1
176
     1
 90
        2
176
     1
 40
0.6
176
     1
 40
30.0
176
     1
 62
     7
420
 16777215
176
     1
 90
        0
176
     1
 90
        4
176
     1
 62
     7
176
     1
 62
   257
176
     1
 90
        1
176
     1
 90
        1
176
     1
 40
1.0
176
     1
 90
        8
176
     1
 62
   257
176
     1
 40
1.0
176
     1
 90
        1
176
     1
 90
        6
176
     1
 90
        2
176
     1
 62
     8
420
  7895160
176
     1
 90
        3
176
     1
 90
        0
176
     1
 90
        0
176
     1
290
     0
176
     1
 90
        5
176
     1
 40
0.0
176
     1
 90
        0
176
     1
290
     0
176
     1
290
     1
176
     1
290
     1
176
     1
290
     0
176
     1
290
     0
176
     1
290
     0
176
     1
290
     0
176
     1
290
     0
176
     1
290
     0
176
     1
 90
       50
176
     1
 40
0.0
176
     1
 40
1.0
176
     1
 90
        0
176
     1
 62
    18
420
        0
176
     1
 90
       50
176
     1
 90
        3
176
     1
 62
     5
420
      255
176
     1
290
     0
176
     1
 90
       50
176
     1
 90
       50
176
     1
 90
       50
176
     1
290
     0
176
     1
 90
       50
176
     1
 62
   256
176
     0
 40
1.0
176
     0
 90
        2
176
     1
  1
strokes_ogs.tif
176
     1
290
     0
176
     1
 40
1.0
176
     1
 40
1.0
176
     1
  0
VISUALSTYLE
  5
B8D
102
{ACAD_REACTORS
330
B76
102
}
330
B76
100
AcDbVisualStyle
  2
Shaded with edges
 70
    26
177
     3
291
     0
 70
    58
 90
        2
176
     1
 90
        2
176
     1
 90
        1
176
     1
 90
        2
176
     1
 40
0.6
176
     1
 40
30.0
176
     1
 62
     7
420
 16777215
176
     1
 90
        1
176
     1
 90
       10
176
     1
 62
     7
176
     1
 62
   257
176
     1
 90
        2
176
     1
 90
        1
176
     1
 40
1.0
176
     1
 90
        8
176
     1
 62
   257
176
     1
 40
1.0
176
     1
 90
        1
176
     1
 90
        6
176
     1
 90
        2
176
     1
 62
     7
176
     1
 90
        3
176
     1
 90
        0
176
     1
 90
        0
176
     1
290
     0
176
     1
 90
        5
176
     1
 40
0.0
176
     1
 90
        0
176
     1
290
     0
176
     1
290
     1
176
     1
290
     1
176
     1
290
     0
176
     1
290
     0
176
     1
290
     0
176
     1
290
     0
176
     1
290
     0
176
     1
290
     0
176
     1
 90
       50
176
     1
 40
0.0
176
     1
 40
1.0
176
     1
 90
        0
176
     1
 62
    18
420
        0
176
     1
 90
       50
176
     1
 90
        3
176
     1
 62
     5
420
      255
176
     1
290
     0
176
     1
 90
       50
176
     1
 90
       50
176
     1
 90
       50
176
     1
290
     0
176
     1
 90
       50
176
     1
 62
   256
176
     0
 40
1.0
176
     0
 90
        2
176
     1
  1
strokes_ogs.tif
176
     1
290
     0
176
     1
 40
1.0
176
     1
 40
1.0
176
     1
  0
VISUALSTYLE
  5
B8A
102
{ACAD_REACTORS
330
B76
102
}
330
B76
100
AcDbVisualStyle
  2
Shades of Gray
 70
    23
177
     3
291
     0
 70
    58
 90
        2
176
     1
 90
        2
176
     1
 90
        3
176
     1
 90
        0
176
     1
 40
0.6
176
     1
 40
30.0
176
     1
 62
     7
420
 16777215
176
     1
 90
        2
176
     1
 90
        2
176
     1
 62
     7
176
     1
 62
     7
176
     1
 90
        1
176
     1
 90
        1
176
     1
 40
40.0
176
     1
 90
        8
176
     1
 62
     7
176
     1
 40
1.0
176
     1
 90
        1
176
     1
 90
        6
176
     1
 90
        2
176
     1
 62
     7
176
     1
 90
        3
176
     1
 90
        0
176
     1
 90
        0
176
     1
290
     0
176
     1
 90
        1
176
     1
 40
0.0
176
     1
 90
        0
176
     1
290
     0
176
     1
290
     1
176
     1
290
     1
176
     1
290
     0
176
     1
290
     0
176
     1
290
     0
176
     1
290
     0
176
     1
290
     0
176
     1
290
     0
176
     1
 90
       50
176
     1
 40
0.0
176
     1
 40
1.0
176
     1
 90
        0
176
     1
 62
    18
420
        0
176
     1
 90
       50
176
     1
 90
        3
176
     1
 62
     5
420
      255
176
     1
290
     0
176
     1
 90
       50
176
     1
 90
       50
176
     1
 90
       50
176
     1
290
     0
176
     1
 90
       50
176
     1
 62
   256
176
     0
 40
1.0
176
     0
 90
        2
176
     1
  1
strokes_ogs.tif
176
     1
290
     0
176
     1
 40
1.0
176
     1
 40
1.0
176
     1
  0
VISUALSTYLE
  5
B8B
102
{ACAD_REACTORS
330
B76
102
}
330
B76
100
AcDbVisualStyle
  2
Sketchy
 70
    24
177
     3
291
     0
 70
    58
 90
        1
176
     1
 90
        2
176
     1
 90
        2
176
     1
 90
        0
176
     1
 40
0.6
176
     1
 40
30.0
176
     1
 62
     7
420
 16777215
176
     1
 90
        2
176
     1
 90
        2
176
     1
 62
     7
176
     1
 62
     7
176
     1
 90
        1
176
     1
 90
        1
176
     1
 40
40.0
176
     1
 90
       11
176
     1
 62
     7
176
     1
 40
1.0
176
     1
 90
        1
176
     1
 90
        6
176
     1
 90
        2
176
     1
 62
     7
176
     1
 90
        6
176
     1
 90
        0
176
     1
 90
        0
176
     1
290
     0
176
     1
 90
        1
176
     1
 40
0.0
176
     1
 90
        0
176
     1
290
     0
176
     1
290
     1
176
     1
290
     1
176
     1
290
     0
176
     1
290
     0
176
     1
290
     0
176
     1
290
     0
176
     1
290
     0
176
     1
290
     0
176
     1
 90
       50
176
     1
 40
0.0
176
     1
 40
1.0
176
     1
 90
        0
176
     1
 62
    18
420
        0
176
     1
 90
       50
176
     1
 90
        3
176
     1
 62
     5
420
      255
176
     1
290
     0
176
     1
 90
       50
176
     1
 90
       50
176
     1
 90
       50
176
     1
290
     0
176
     1
 90
       50
176
     1
 62
   256
176
     0
 40
1.0
176
     0
 90
        2
176
     1
  1
strokes_ogs.tif
176
     1
290
     0
176
     1
 40
1.0
176
     1
 40
1.0
176
     1
  0
VISUALSTYLE
  5
B83
102
{ACAD_REACTORS
330
B76
102
}
330
B76
100
AcDbVisualStyle
  2
Thicken
 70
    13
177
     3
291
     1
 70
    58
 90
        2
176
     1
 90
        2
176
     1
 90
        0
176
     1
 90
        0
176
     1
 40
0.6
176
     1
 40
30.0
176
     1
 62
     7
420
 16777215
176
     1
 90
        1
176
     1
 90
        4
176
     1
 62
     7
176
     1
 62
   257
176
     1
 90
        1
176
     1
 90
        1
176
     1
 40
1.0
176
     1
 90
       12
176
     1
 62
     7
176
     1
 40
1.0
176
     1
 90
        1
176
     1
 90
        6
176
     1
 90
        2
176
     1
 62
     7
176
     1
 90
        5
176
     1
 90
        0
176
     1
 90
        0
176
     1
290
     0
176
     1
 90
        1
176
     1
 40
0.0
176
     1
 90
        0
176
     1
290
     0
176
     1
290
     1
176
     1
290
     1
176
     1
290
     0
176
     1
290
     0
176
     1
290
     0
176
     1
290
     0
176
     1
290
     0
176
     1
290
     0
176
     1
 90
       50
176
     1
 40
0.0
176
     1
 40
1.0
176
     1
 90
        0
176
     1
 62
    18
420
        0
176
     1
 90
       50
176
     1
 90
        3
176
     1
 62
     5
420
      255
176
     1
290
     0
176
     1
 90
       50
176
     1
 90
       50
176
     1
 90
       50
176
     1
290
     0
176
     1
 90
       50
176
     1
 62
   256
176
     0
 40
1.0
176
     0
 90
        2
176
     1
  1
strokes_ogs.tif
176
     1
290
     0
176
     1
 40
1.0
176
     1
 40
1.0
176
     1
  0
VISUALSTYLE
  5
B7C
102
{ACAD_REACTORS
330
B76
102
}
330
B76
100
AcDbVisualStyle
  2
Wireframe
 70
     5
177
     3
291
     0
 70
    58
 90
        0
176
     1
 90
        2
176
     1
 90
        0
176
     1
 90
        0
176
     1
 40
0.6
176
     1
 40
30.0
176
     1
 62
     7
420
 16777215
176
     1
 90
        1
176
     1
 90
        4
176
     1
 62
     7
176
     1
 62
   257
176
     1
 90
        1
176
     1
 90
        1
176
     1
 40
1.0
176
     1
 90
        0
176
     1
 62
   257
176
     1
 40
1.0
176
     1
 90
        1
176
     1
 90
        6
176
     1
 90
        2
176
     1
 62
     7
176
     1
 90
        3
176
     1
 90
        0
176
     1
 90
        0
176
     1
290
     0
176
     1
 90
        1
176
     1
 40
0.0
176
     1
 90
        0
176
     1
290
     0
176
     1
290
     1
176
     1
290
     1
176
     1
290
     0
176
     1
290
     0
176
     1
290
     0
176
     1
290
     0
176
     1
290
     0
176
     1
290
     0
176
     1
 90
       50
176
     1
 40
0.0
176
     1
 40
1.0
176
     1
 90
        0
176
     1
 62
    18
420
        0
176
     1
 90
       50
176
     1
 90
        3
176
     1
 62
     5
420
      255
176
     1
290
     0
176
     1
 90
       50
176
     1
 90
       50
176
     1
 90
       50
176
     1
290
     0
176
     1
 90
       50
176
     1
 62
   256
176
     0
 40
1.0
176
     0
 90
        2
176
     1
  1
strokes_ogs.tif
176
     1
290
     0
176
     1
 40
1.0
176
     1
 40
1.0
176
     1
  0
VISUALSTYLE
  5
B8C
102
{ACAD_REACTORS
330
B76
102
}
330
B76
100
AcDbVisualStyle
  2
X-Ray
 70
    25
177
     3
291
     0
 70
    58
 90
        2
176
     1
 90
        2
176
     1
 90
        1
176
     1
 90
        1
176
     1
 40
0.5
176
     1
 40
30.0
176
     1
 62
     7
420
 16777215
176
     1
 90
        1
176
     1
 90
        0
176
     1
 62
     7
176
     1
 62
   257
176
     1
 90
        1
176
     1
 90
        1
176
     1
 40
1.0
176
     1
 90
        8
176
     1
 62
     7
176
     1
 40
1.0
176
     1
 90
        1
176
     1
 90
        6
176
     1
 90
        2
176
     1
 62
     7
176
     1
 90
        3
176
     1
 90
        0
176
     1
 90
        0
176
     1
290
     0
176
     1
 90
       13
176
     1
 40
0.0
176
     1
 90
        0
176
     1
290
     0
176
     1
290
     1
176
     1
290
     1
176
     1
290
     0
176
     1
290
     0
176
     1
290
     0
176
     1
290
     0
176
     1
290
     0
176
     1
290
     0
176
     1
 90
       50
176
     1
 40
0.0
176
     1
 40
1.0
176
     1
 90
        0
176
     1
 62
    18
420
        0
176
     1
 90
       50
176
     1
 90
        3
176
     1
 62
     5
420
      255
176
     1
290
     0
176
     1
 90
       50
176
     1
 90
       50
176
     1
 90
       50
176
     1
290
     0
176
     1
 90
       50
176
     1
 62
   256
176
     0
 40
1.0
176
     0
 90
        2
176
     1
  1
strokes_ogs.tif
176
     1
290
     0
176
     1
 40
1.0
176
     1
 40
1.0
176
     1
  0
DICTIONARYVAR
  5
C39
102
{ACAD_REACTORS
330
C38
102
}
330
C38
100
DictionaryVariables
280
     0
  1
1:1
  0
DICTIONARYVAR
  5
C3E
102
{ACAD_REACTORS
330
C38
102
}
330
C38
100
DictionaryVariables
280
     0
  1
Standard
  0
DICTIONARYVAR
  5
C3D
102
{ACAD_REACTORS
330
C38
102
}
330
C38
100
DictionaryVariables
280
     0
  1
Standard
  0
XRECORD
  5
BAD
102
{ACAD_REACTORS
330
BAB
102
}
330
BAB
100
AcDbXrecord
280
     1
1000
#ffffff
  0
XRECORD
  5
BAE
102
{ACAD_REACTORS
330
BAB
102
}
330
BAB
100
AcDbXrecord
280
     1
1000
FullColor
  0
XRECORD
  5
BAF
102
{ACAD_REACTORS
330
BAB
102
}
330
BAB
100
AcDbXrecord
280
     1
290
     1
  0
XRECORD
  5
BB0
102
{ACAD_REACTORS
330
BAB
102
}
330
BAB
100
AcDbXrecord
280
     1
290
     1
  0
XRECORD
  5
BB1
102
{ACAD_REACTORS
330
BAB
102
}
330
BAB
100
AcDbXrecord
280
     1
290
     1
  0
XRECORD
  5
BB2
102
{ACAD_REACTORS
330
BAB
102
}
330
BAB
100
AcDbXrecord
280
     1
290
     1
  0
XRECORD
  5
BB3
102
{ACAD_REACTORS
330
BAB
102
}
330
BAB
100
AcDbXrecord
280
     1
1000
auto
  0
XRECORD
  5
BB4
102
{ACAD_REACTORS
330
BAB
102
}
330
BAB
100
AcDbXrecord
280
     1
1000
auto
  0
XRECORD
  5
BB5
102
{ACAD_REACTORS
330
BAB
102
}
330
BAB
100
AcDbXrecord
280
     1
1000
auto
  0
XRECORD
  5
BB6
102
{ACAD_REACTORS
330
BAB
102
}
330
BAB
100
AcDbXrecord
280
     1
1000
auto
  0
XRECORD
  5
BB7
102
{ACAD_REACTORS
330
BAB
102
}
330
BAB
100
AcDbXrecord
280
     1
1000
auto
  0
XRECORD
  5
BB8
102
{ACAD_REACTORS
330
BAB
102
}
330
BAB
100
AcDbXrecord
280
     1
1000
auto
  0
XRECORD
  5
BB9
102
{ACAD_REACTORS
330
BAB
102
}
330
BAB
100
AcDbXrecord
280
     1
1000
auto
  0
XRECORD
  5
BBA
102
{ACAD_REACTORS
330
BAB
102
}
330
BAB
100
AcDbXrecord
280
     1
1000
auto
  0
XRECORD
  5
BBB
102
{ACAD_REACTORS
330
BAB
102
}
330
BAB
100
AcDbXrecord
280
     1
290
     0
  0
XRECORD
  5
BBC
102
{ACAD_REACTORS
330
BAB
102
}
330
BAB
100
AcDbXrecord
280
     1
290
     0
  0
XRECORD
  5
BBD
102
{ACAD_REACTORS
330
BAB
102
}
330
BAB
100
AcDbXrecord
280
     1
290
     0
  0
XRECORD
  5
BBE
102
{ACAD_REACTORS
330
BAB
102
}
330
BAB
100
AcDbXrecord
280
     1
290
     0
  0
XRECORD
  5
BBF
102
{ACAD_REACTORS
330
BAB
102
}
330
BAB
100
AcDbXrecord
280
     1
 90
    65537
  0
XRECORD
  5
BC0
102
{ACAD_REACTORS
330
BAB
102
}
330
BAB
100
AcDbXrecord
280
     1
 90
    65537
  0
XRECORD
  5
BC1
102
{ACAD_REACTORS
330
BAB
102
}
330
BAB
100
AcDbXrecord
280
     1
 90
    65537
  0
XRECORD
  5
BC2
102
{ACAD_REACTORS
330
BAB
102
}
330
BAB
100
AcDbXrecord
280
     1
 90
    65537
  0
XRECORD
  5
BC3
102
{ACAD_REACTORS
330
BAB
102
}
330
BAB
100
AcDbXrecord
280
     1
1000
auto
  0
XRECORD
  5
BC4
102
{ACAD_REACTORS
330
BAB
102
}
330
BAB
100
AcDbXrecord
280
     1
1000
auto
  0
XRECORD
  5
BC5
102
{ACAD_REACTORS
330
BAB
102
}
330
BAB
100
AcDbXrecord
280
     1
1000
auto
  0
XRECORD
  5
BC6
102
{ACAD_REACTORS
330
BAB
102
}
330
BAB
100
AcDbXrecord
280
     1
1000
auto
  0
XRECORD
  5
BC7
102
{ACAD_REACTORS
330
BAB
102
}
330
BAB
100
AcDbXrecord
280
     1
1000
auto
  0
XRECORD
  5
BC8
102
{ACAD_REACTORS
330
BAB
102
}
330
BAB
100
AcDbXrecord
280
     1
1000
auto
  0
XRECORD
  5
BC9
102
{ACAD_REACTORS
330
BAB
102
}
330
BAB
100
AcDbXrecord
280
     1
1000
auto
  0
XRECORD
  5
BCA
102
{ACAD_REACTORS
330
BAB
102
}
330
BAB
100
AcDbXrecord
280
     1
1000
auto
  0
XRECORD
  5
BCB
102
{ACAD_REACTORS
330
BAB
102
}
330
BAB
100
AcDbXrecord
280
     1
 90
        1
  0
XRECORD
  5
BCC
102
{ACAD_REACTORS
330
BAB
102
}
330
BAB
100
AcDbXrecord
280
     1
 40
10.0
  0
XRECORD
  5
BCD
102
{ACAD_REACTORS
330
BAB
102
}
330
BAB
100
AcDbXrecord
280
     1
 40
10.0
  0
XRECORD
  5
BCE
102
{ACAD_REACTORS
330
BAB
102
}
330
BAB
100
AcDbXrecord
280
     1
 40
10.0
  0
XRECORD
  5
BCF
102
{ACAD_REACTORS
330
BAB
102
}
330
BAB
100
AcDbXrecord
280
     1
 40
10.0
  0
XRECORD
  5
BD0
102
{ACAD_REACTORS
330
BAB
102
}
330
BAB
100
AcDbXrecord
280
     1
290
     0
  0
XRECORD
  5
BD1
102
{ACAD_REACTORS
330
BAB
102
}
330
BAB
100
AcDbXrecord
280
     1
 90
        1
  0
XRECORD
  5
BD2
102
{ACAD_REACTORS
330
BAB
102
}
330
BAB
100
AcDbXrecord
280
     1
 40
0.0
  0
XRECORD
  5
BD3
102
{ACAD_REACTORS
330
BAB
102
}
330
BAB
100
AcDbXrecord
280
     1
 40
0.0
  0
XRECORD
  5
BD4
102
{ACAD_REACTORS
330
BAB
102
}
330
BAB
100
AcDbXrecord
280
     1
1000
Portrait
  0
XRECORD
  5
BD5
102
{ACAD_REACTORS
330
BAB
102
}
330
BAB
100
AcDbXrecord
280
     1
 40
297.0
  0
XRECORD
  5
BD6
102
{ACAD_REACTORS
330
BAB
102
}
330
BAB
100
AcDbXrecord
280
     1
 40
210.0
  0
XRECORD
  5
BD7
102
{ACAD_REACTORS
330
BAB
102
}
330
BAB
100
AcDbXrecord
280
     1
1000
1:1
  0
XRECORD
  5
BD8
102
{ACAD_REACTORS
330
BAB
102
}
330
BAB
100
AcDbXrecord
280
     1
290
     1
  0
XRECORD
  5
BD9
102
{ACAD_REACTORS
330
BAB
102
}
330
BAB
100
AcDbXrecord
280
     1
290
     0
  0
XRECORD
  5
BDA
102
{ACAD_REACTORS
330
BAB
102
}
330
BAB
100
AcDbXrecord
280
     1
1000
Inside
  0
XRECORD
  5
BDB
102
{ACAD_REACTORS
330
BAB
102
}
330
BAB
100
AcDbXrecord
280
     1
1000
Arial,10,-1,5,50,0,0,0,0,0
  0
XRECORD
  5
BDC
102
{ACAD_REACTORS
330
BAB
102
}
330
BAB
100
AcDbXrecord
280
     1
1000
TopLeft
  0
XRECORD
  5
BDD
102
{ACAD_REACTORS
330
BAB
102
}
330
BAB
100
AcDbXrecord
280
     1
1000
3.29.6
  0
XRECORD
  5
BDE
102
{ACAD_REACTORS
330
BAB
102
}
330
BAB
100
AcDbXrecord
280
     1
 90
        4
  0
XRECORD
  5
BDF
102
{ACAD_REACTORS
330
BAB
102
}
330
BAB
100
AcDbXrecord
280
     1
  0
XRECORD
  5
BE0
102
{ACAD_REACTORS
330
BAB
102
}
330
BAB
100
AcDbXrecord
280
     1
 40
477.5482881816506
  0
XRECORD
  5
BE1
102
{ACAD_REACTORS
330
BAB
102
}
330
BAB
100
AcDbXrecord
280
     1
 40
814.5124869444189
  0
DICTIONARY
  5
C3A
330
BA6
100
AcDbDictionary
280
     1
281
     1
  3
ACAD_ROUNDTRIP_2008_TABLESTYLE_CELLSTYLEMAP
360
C3B
  0
CELLSTYLEMAP
  5
C3B
102
{ACAD_REACTORS
330
C3A
102
}
330
C3A
100
AcDbCellStyleMap
 90
        3
300
CELLSTYLE
  1
TABLEFORMAT_BEGIN
 90
        5
170
     1
 91
        0
 92
    32768
 62
   257
 93
        1
300
CONTENTFORMAT
  1
CONTENTFORMAT_BEGIN
 90
        0
 91
        0
 92
        4
 93
        0
300

 40
0.0
140
1.0
 94
        5
 62
     0
340
B5E
144
0.25
309
CONTENTFORMAT_END
171
     1
301
MARGIN
  1
CELLMARGIN_BEGIN
 40
0.06
 40
0.06
 40
0.06
 40
0.06
 40
0.06
 40
0.06
309
CELLMARGIN_END
 94
        6
 95
        1
302
GRIDFORMAT
  1
GRIDFORMAT_BEGIN
 90
        0
 91
        1
 62
     0
 92
       -2
340
B60
 93
        0
 40
0.045
309
GRIDFORMAT_END
 95
        2
302
GRIDFORMAT
  1
GRIDFORMAT_BEGIN
 90
        0
 91
        1
 62
     0
 92
       -2
340
B60
 93
        0
 40
0.045
309
GRIDFORMAT_END
 95
        4
302
GRIDFORMAT
  1
GRIDFORMAT_BEGIN
 90
        0
 91
        1
 62
     0
 92
       -2
340
B60
 93
        0
 40
0.045
309
GRIDFORMAT_END
 95
        8
302
GRIDFORMAT
  1
GRIDFORMAT_BEGIN
 90
        0
 91
        1
 62
     0
 92
       -2
340
B60
 93
        0
 40
0.045
309
GRIDFORMAT_END
 95
       16
302
GRIDFORMAT
  1
GRIDFORMAT_BEGIN
 90
        0
 91
        1
 62
     0
 92
       -2
340
B60
 93
        0
 40
0.045
309
GRIDFORMAT_END
 95
       32
302
GRIDFORMAT
  1
GRIDFORMAT_BEGIN
 90
        0
 91
        1
 62
     0
 92
       -2
340
B60
 93
        0
 40
0.045
309
GRIDFORMAT_END
309
TABLEFORMAT_END
  1
CELLSTYLE_BEGIN
 90
        1
 91
        1
300
_TITLE
309
CELLSTYLE_END
300
CELLSTYLE
  1
TABLEFORMAT_BEGIN
 90
        5
170
     1
 91
        0
 92
        0
 62
   257
 93
        1
300
CONTENTFORMAT
  1
CONTENTFORMAT_BEGIN
 90
        0
 91
        0
 92
        4
 93
        0
300

 40
0.0
140
1.0
 94
        5
 62
     0
340
B5E
144
0.18
309
CONTENTFORMAT_END
171
     1
301
MARGIN
  1
CELLMARGIN_BEGIN
 40
0.06
 40
0.06
 40
0.06
 40
0.06
 40
0.06
 40
0.06
309
CELLMARGIN_END
 94
        6
 95
        1
302
GRIDFORMAT
  1
GRIDFORMAT_BEGIN
 90
        0
 91
        1
 62
     0
 92
       -2
340
B60
 93
        0
 40
0.045
309
GRIDFORMAT_END
 95
        2
302
GRIDFORMAT
  1
GRIDFORMAT_BEGIN
 90
        0
 91
        1
 62
     0
 92
       -2
340
B60
 93
        0
 40
0.045
309
GRIDFORMAT_END
 95
        4
302
GRIDFORMAT
  1
GRIDFORMAT_BEGIN
 90
        0
 91
        1
 62
     0
 92
       -2
340
B60
 93
        0
 40
0.045
309
GRIDFORMAT_END
 95
        8
302
GRIDFORMAT
  1
GRIDFORMAT_BEGIN
 90
        0
 91
        1
 62
     0
 92
       -2
340
B60
 93
        0
 40
0.045
309
GRIDFORMAT_END
 95
       16
302
GRIDFORMAT
  1
GRIDFORMAT_BEGIN
 90
        0
 91
        1
 62
     0
 92
       -2
340
B60
 93
        0
 40
0.045
309
GRIDFORMAT_END
 95
       32
302
GRIDFORMAT
  1
GRIDFORMAT_BEGIN
 90
        0
 91
        1
 62
     0
 92
       -2
340
B60
 93
        0
 40
0.045
309
GRIDFORMAT_END
309
TABLEFORMAT_END
  1
CELLSTYLE_BEGIN
 90
        2
 91
        1
300
_HEADER
309
CELLSTYLE_END
300
CELLSTYLE
  1
TABLEFORMAT_BEGIN
 90
        5
170
     1
 91
        0
 92
        0
 62
   257
 93
        1
300
CONTENTFORMAT
  1
CONTENTFORMAT_BEGIN
 90
        0
 91
        0
 92
        4
 93
        0
300

 40
0.0
140
1.0
 94
        2
 62
     0
340
B5E
144
0.18
309
CONTENTFORMAT_END
171
     1
301
MARGIN
  1
CELLMARGIN_BEGIN
 40
0.06
 40
0.06
 40
0.06
 40
0.06
 40
0.06
 40
0.06
309
CELLMARGIN_END
 94
        6
 95
        1
302
GRIDFORMAT
  1
GRIDFORMAT_BEGIN
 90
        0
 91
        1
 62
     0
 92
       -2
340
B60
 93
        0
 40
0.045
309
GRIDFORMAT_END
 95
        2
302
GRIDFORMAT
  1
GRIDFORMAT_BEGIN
 90
        0
 91
        1
 62
     0
 92
       -2
340
B60
 93
        0
 40
0.045
309
GRIDFORMAT_END
 95
        4
302
GRIDFORMAT
  1
GRIDFORMAT_BEGIN
 90
        0
 91
        1
 62
     0
 92
       -2
340
B60
 93
        0
 40
0.045
309
GRIDFORMAT_END
 95
        8
302
GRIDFORMAT
  1
GRIDFORMAT_BEGIN
 90
        0
 91
        1
 62
     0
 92
       -2
340
B60
 93
        0
 40
0.045
309
GRIDFORMAT_END
 95
       16
302
GRIDFORMAT
  1
GRIDFORMAT_BEGIN
 90
        0
 91
        1
 62
     0
 92
       -2
340
B60
 93
        0
 40
0.045
309
GRIDFORMAT_END
 95
       32
302
GRIDFORMAT
  1
GRIDFORMAT_BEGIN
 90
        0
 91
        1
 62
     0
 92
       -2
340
B60
 93
        0
 40
0.045
309
GRIDFORMAT_END
309
TABLEFORMAT_END
  1
CELLSTYLE_BEGIN
 90
        3
 91
        2
300
_DATA
309
CELLSTYLE_END
  0
ENDSEC
  0
EOF
